Регистрация ·  Логин: Пароль: Запомнить   · Забыли пароль?



Торрент трекер atorrent.space.
Скачать торрент Репродукция / Replicas (2018) WEB-DLRip-AVC от OlLanDGroup | iTunes, размером 1.61 ГБ



Ответить на тему
Статистика раздачи
Размер: 1.61 ГБ | Зарегистрирован: 27 янв 2019, 22:50 | .torrent скачан: 3476 раз(а)
Сидеров: [ 202  | 0 байт/сек ]   Личеров: [ 13  | 0 байт/сек ]   DHT: [ 200 / 13 ]
Автор Сообщение

Почётный релизер
Аватара пользователя

Стаж: 5 лет 6 месяцев
Сообщения: 2666
Откуда: Казань
Россия

Сообщение 27 янв 2019, 22:50 

[Цитировать]

Репродукция / Replicas


Год выпуска: 2018
Страна: США
Производство: Company Films, Di Bonaventura Pictures, Riverstone Pictures
Жанр: Фантастика, триллер, мистика, криминал

Режиссёр: Джеффри Начманофф
В ролях: Киану Ривз, Элис Ив, Эмили Элин Линд, Томас Миддлдитч, Джон Ортис, Эмджей Энтони, Няша Хатенди, Ария Лайрик Либу, Эмбер Таунсенд, Эмбер Ривера, Джеффри Хольсман, Саншайн Логроньо, Иван Дж. Торрес Ласанта, Омар Крус Сото

Перевод: Дублированный | [iTunes]
Субтитры: Нет
Реклама: Отсутствует

Описание: Талантливый ученый-биолог теряет в автокатастрофе свою семью. Одержимый желанием вернуть к жизни жену и детей, он преступает законы научной этики и самой природы. Но когда информация о репродукции человека доходит до властей, на ученого и воскрешенных им близких начинается охота.



Качество: WEB-DLRip-AVC | |
Продолжительность: 01:42:52

Формат: MKV
Видео кодек: MPEG-4 AVC
Аудио кодек: AC3
Видео: 1024x428 (2.40:1), 24,000 fps, x264 ~1 864 kbps avg, 0.170 bit/pixel
Аудио #1: 48 kHz, AC3 Dolby Digital, 3/2 (L,C,R,l,r) + LFE ch, ~384.00 kbps avg | RUS (iTunes)

Дата премьеры (мир): 26 октября 2018
Дата премьеры (РФ): 25 октября 2018, «Парадиз»
Цифровой релиз:
Релиз от: Rip by:

Общее
Уникальный идентификатор : 264268178223490919640161326071444872894 (0xC6D03324B63BE867892D6F6679DB1EBE)
Полное имя : F:OlLanDGroupReplicas.2018.WEB-DLRip(AVC).OlLanDGroup.mkv
Формат : Matroska
Версия формата : Version 4 / Version 2
Размер файла : 1,61 Гбайт
Продолжительность : 1 ч. 42 м.
Общий поток : 2247 Кбит/сек
Название фильма : Replicas 2018 #TorpedoUK#
Дата кодирования : UTC 2019-01-25 10:28:53
Программа кодирования : mkvmerge v29.0.0 ('Like It Or Not') 64-bit
Библиотека кодирования : libebml v1.3.6 + libmatroska v1.4.9

Видео
Идентификатор : 1
Формат : AVC
Формат/Информация : Advanced Video Codec
Профиль формата : [email protected]
Параметр CABAC формата : Да
Параметр ReFrames формата : 10 кадров
Идентификатор кодека : V_MPEG4/ISO/AVC
Продолжительность : 1 ч. 42 м.
Битрейт : 1864 Кбит/сек
Ширина : 1024 пикселя
Высота : 428 пикселей
Соотношение сторон : 2,40:1
Режим частоты кадров : Постоянный
Частота кадров : 25,000 кадров/сек
Цветовое пространство : YUV
Субдискретизация насыщенности : 4:2:0
Битовая глубина : 8 бит
Тип развёртки : Прогрессивная
Бит/(Пиксели*Кадры) : 0.170
Размер потока : 1,34 Гбайт (83%)
Библиотека кодирования : x264 core 146 r2538 121396c
Настройки программы : cabac=1 / ref=10 / deblock=1:-3:-3 / analyse=0x3:0x113 / me=umh / subme=10 / psy=1 / psy_rd=0.97:0.05 / mixed_ref=1 / me_range=48 / chroma_me=1 / trellis=2 / 8x8dct=1 / cqm=0 / deadzone=21,11 / fast_pskip=1 / chroma_qp_offset=-3 / threads=6 / lookahead_threads=1 / sliced_threads=0 / nr=0 / decimate=1 / interlaced=0 / bluray_compat=0 / constrained_intra=0 / bframes=11 / b_pyramid=2 / b_adapt=2 / b_bias=0 / direct=3 / weightb=1 / open_gop=0 / weightp=2 / keyint=250 / keyint_min=25 / scenecut=40 / intra_refresh=0 / rc_lookahead=40 / rc=2pass / mbtree=0 / bitrate=1864 / ratetol=1.0 / qcomp=0.60 / qpmin=0 / qpmax=69 / qpstep=4 / cplxblur=20.0 / qblur=0.5 / vbv_maxrate=50000 / vbv_bufsize=62500 / nal_hrd=none / filler=0 / ip_ratio=1.40 / pb_ratio=1.30 / aq=1:1.00
Язык : English
Default : Да
Forced : Нет

Аудио
Идентификатор : 2
Формат : AC-3
Формат/Информация : Audio Coding 3
Расширение режима : CM (complete main)
Параметр Endianness формата : Big
Идентификатор кодека : A_AC3
Продолжительность : 1 ч. 42 м.
Вид битрейта : Постоянный
Битрейт : 384 Кбит/сек
Каналы : 6 каналов
Расположение каналов : Front: L C R, Side: L R, LFE
Частота : 48,0 КГц
Частота кадров : 31,250 кадров/сек (1536 spf)
Битовая глубина : 16 бит
Метод сжатия : С потерями
Размер потока : 283 Мбайт (17%)
Заголовок : iTunes
Язык : Russian
Default : Да
Forced : Да

Меню
00:00:00.000 : en:Глава 1
00:07:19.080 : en:Глава 2
00:11:50.240 : en:Глава 3
00:17:00.960 : en:Глава 4
00:22:13.599 : en:Глава 5
00:28:38.158 : en:Глава 6
00:33:42.398 : en:Глава 7
00:40:11.717 : en:Глава 8
00:44:39.396 : en:Глава 9
00:50:00.515 : en:Глава 10
00:55:48.355 : en:Глава 11
01:01:01.994 : en:Глава 12
01:07:02.673 : en:Глава 13
01:12:15.153 : en:Глава 14
01:20:08.833 : en:Глава 15
01:26:17.272 : en:Глава 16






Скачать .torrent 1.61 ГБ


Download
Для скачивания .torrent файлов необходима регистрация
Сайт не распространяет и не хранит электронные версии произведений, а лишь предоставляет доступ к создаваемому пользователями каталогу ссылок на торрент-файлы, которые содержат только списки хеш-сумм

Стаж: 3 года 10 месяцев
Сообщения: 5
Откуда: Москва
СССР

Сообщение 18 фев 2019, 15:21 

[Цитировать]

Бред. Запрет на клонирование опирается на то что Созданный клон будет человеком НО без документов и не пройдёт официальную регистрацию как новый человек. следовательно его будут использовать как Раба или мясо. что и запрещает закон

Модератор
Аватара пользователя

Стаж: 5 лет 6 месяцев
Сообщения: 4721
Россия

Сообщение 18 фев 2019, 15:39 

[Цитировать]

Фантастика, но фильм интересный.

Страница 1 из 1

Ответить на тему

   Похожие торренты   Торрент 




cron