Регистрация ·  Логин: Пароль: Запомнить   · Забыли пароль?



Торрент трекер atorrent.space.
Скачать торрент Полярный / Polar (2019) WEBRip 720p | L1, размером 2.9 ГБ



Ответить на тему
Статистика раздачи
Размер: 2.9 ГБ | Зарегистрирован: 28 янв 2019, 22:48 | .torrent скачан: 502 раз(а)
Сидеров: [ 119  | 0 байт/сек ]   Личеров: [ 2  | 0 байт/сек ]   DHT: [ 119 / 2 ]
Автор Сообщение

Почётный релизер
Аватара пользователя

Стаж: 5 лет 6 месяцев
Сообщения: 2666
Откуда: Казань
Россия

Сообщение 28 янв 2019, 22:48 

[Цитировать]


Название: Полярный
Оригинальное название: Polar
Год выхода: 2019
Жанр: Боевик, криминал
Режиссер: Йонас Окерлунд
В ролях: Мадс Миккельсен, Ванесса Энн Хадженс, Кэтрин Уинник, Руби О. Фи, Джонни Ноксвилл, Мэтт Лукас, Сима Фишер, Роберт Мэйллет, Фэй Рен, Инга Кадранел

Описание:
Дункан Визла - один из самых опасных киллеров в мире, известный под прозвищем Черный Кайзер. Когда-то он убивал людей по всему свету, но теперь наслаждается мирным существованием и давно уже не брал в руки оружие.Только вот бывший клиент, с которым у Дункана произошел небольшой конфликт, не собирается забывать старые обиды. В скором времени мирной жизни бывшего киллера придет конец, когда за Дунканом начнет охоту армия из молодых и беспощадных убийц. Для спасения жизни ему предстоит использовать все полученные за долгие годы заказных убийств навыки и знания..



Страна: США, Германия
Продолжительность: 01:59:00
Перевод: Любительский одноголосый (Хихикающий доктор)

Файл
Формат: MKV
Качество: WEBRip 720p
Видео: 1280x720, 23.076 fps, AVC (H.264), [email protected] ~ 3320 Кbps
Звук: 44.100 kHz, MPEG Layer 3, 2 ch, ~192.00 kbps avg rus
Трейлер

Без рекламы


Complete name : E:Polar.2019.NF.WEBRip.720p.Xixidok.mkv
Format : Matroska
Format version : Version 4 / Version 2
File size : 2.90 GiB
Duration : 1 h 59 min
Overall bit rate mode : Variable
Overall bit rate : 3 485 kb/s
Encoded date : UTC 2019-01-26 12:14:28
Writing application : mkvmerge v15.0.0 ('Duel with the Devil') 64-bit
Writing library : libebml v1.3.5 + libmatroska v1.4.5

Video
ID : 1
Format : AVC
Format/Info : Advanced Video Codec
Format profile : [email protected]
Format settings : CABAC / 3 Ref Frames
Format settings, CABAC : Yes
Format settings, RefFrames : 3 frames
Codec ID : V_MPEG4/ISO/AVC
Duration : 1 h 58 min
Bit rate mode : Variable
Bit rate : 3 320 kb/s
Maximum bit rate : 4 980 kb/s
Width : 1 280 pixels
Height : 720 pixels
Display aspect ratio : 16:9
Frame rate mode : Constant
Frame rate : 23.976 (24000/1001) FPS
Color space : YUV
Chroma subsampling : 4:2:0
Bit depth : 8 bits
Scan type : Progressive
Bits/(Pixel*Frame) : 0.150
Stream size : 2.74 GiB (94%)
Writing library : x264 core 148 r2715 7e75228
Encoding settings : cabac=1 / ref=3 / deblock=1:0:0 / analyse=0x1:0x111 / me=umh / subme=10 / psy=1 / psy_rd=1.00:0.00 / mixed_ref=1 / me_range=24 / chroma_me=1 / trellis=2 / 8x8dct=0 / cqm=0 / deadzone=21,11 / fast_pskip=1 / chroma_qp_offset=-2 / threads=8 / lookahead_threads=1 / sliced_threads=0 / nr=0 / decimate=1 / interlaced=0 / bluray_compat=0 / stitchable=1 / constrained_intra=0 / bframes=2 / b_pyramid=0 / b_adapt=2 / b_bias=0 / direct=3 / weightb=1 / open_gop=0 / weightp=2 / keyint=48 / keyint_min=25 / scenecut=0 / intra_refresh=0 / rc_lookahead=48 / rc=2pass / mbtree=1 / bitrate=3320 / ratetol=1.0 / qcomp=0.50 / qpmin=6 / qpmax=51 / qpstep=4 / cplxblur=20.0 / qblur=0.5 / vbv_maxrate=4980 / vbv_bufsize=6640 / nal_hrd=vbr / filler=0 / ip_ratio=1.40 / aq=1:1.00
Default : Yes
Forced : No

Audio
ID : 2
Format : MPEG Audio
Format version : Version 1
Format profile : Layer 3
Codec ID : A_MPEG/L3
Codec ID/Hint : MP3
Duration : 1 h 59 min
Bit rate mode : Constant
Bit rate : 192 kb/s
Channel(s) : 2 channels
Sampling rate : 44.1 kHz
Frame rate : 38.281 FPS (1152 SPF)
Compression mode : Lossy
Stream size : 164 MiB (6%)
Default : Yes
Forced : No


Скачать .torrent 2.9 ГБ


Download
Для скачивания .torrent файлов необходима регистрация
Сайт не распространяет и не хранит электронные версии произведений, а лишь предоставляет доступ к создаваемому пользователями каталогу ссылок на торрент-файлы, которые содержат только списки хеш-сумм

Страница 1 из 1

Ответить на тему

   Похожие торренты   Торрент 




cron