Регистрация ·  Логин: Пароль: Запомнить   · Забыли пароль?



Торрент трекер atorrent.space.
Скачать торрент 2019: После падения Нью-Йорка / 2019 - Dopo la caduta di New York (1983) HDRip-AVC от ExKinoRay | L1, размером 746.43 МБ



Ответить на тему
Статистика раздачи
Размер: 746.43 МБ | Зарегистрирован: 28 янв 2019, 22:52 | .torrent скачан: 32 раз(а)
Сидеров: [ 15  | 0 байт/сек ]   Личеров: [ 2  | 0 байт/сек ]   DHT: [ 15 / 2 ]
Автор Сообщение

Почётный релизер
Аватара пользователя

Стаж: 5 лет 7 месяцев
Сообщения: 2666
Откуда: Казань
Россия

Сообщение 28 янв 2019, 22:52 

[Цитировать]



Информация о фильме
Название: 2019: После падения Нью-Йорка
Оригинальное название: 2019 - Dopo la caduta di New York
Год выхода: 1983
Жанр: Ужасы, фантастика, боевик
Режиссер: Серджио Мартино
В ролях: Майкл Сопкив, Валентина Монньер, Анна Канакис, Романо Пуппо, Паоло Мария Скалондро, Луис Экклесия, Эдмунд Пурдом, Серж Феллар, Тициана Фиби, Харукико Яманоу

О фильме :
Идет двадцатый год после ядерной войны, развязанной могущественным афро-евро-азиатским союзом против США. Из-за радиоактивного заражения все женщины Земли потеряли репродуктивную функцию, а часть населения превратилась в мутантов. Войска союза, объявившего себя победителем, проводят регулярные рейды для забора генетического материала, а остатки штатовского командования, мечтают о реванше и знают о существовании единственной женщины, способной к оплодотворению.



Страна: Италия, Франция
Продолжительность: 01:35:46
Перевод: Любительский (одноголосый закадровый)

Файл
Формат: MKV
Качество: HDRip-AVC
Видео: MPEG-4 AVC, 752x408, ~ 1012 Кбит/с
Аудио: AAC-HE, 2 ch, ~ 76 Кбит/с
Субтитры: Нет

Общее
Уникальный идентификатор : 47487311481524236272759504777609264186 (0x23B9B9385967A4540C08733C845CBC3A)
Полное имя : D:MOVIESDopo la caduta di New York.1983.ExKinoRay.mkv
Формат : Matroska
Версия формата : Version 2
Размер файла : 746 Мбайт
Продолжительность : 1 ч. 35 м.
Общий поток : 1089 Кбит/сек
Дата кодирования : UTC 2018-05-22 10:24:33
Программа кодирования : mkvmerge v23.0.0 ('The Bride Said No') 64-bit
Библиотека кодирования : libebml v1.3.6 + libmatroska v1.4.9

Видео
Идентификатор : 1
Формат : AVC
Формат/Информация : Advanced Video Codec
Профиль формата : [email protected]
Параметр CABAC формата : Да
Параметр RefFrames формата : 10 кадров
Идентификатор кодека : V_MPEG4/ISO/AVC
Продолжительность : 1 ч. 35 м.
Битрейт : 1012 Кбит/сек
Ширина : 752 пикселя
Высота : 408 пикселей
Соотношение сторон : 1,85:1
Режим частоты кадров : Постоянный
Частота кадров : 23,976 (24000/1001) кадра/сек
Цветовое пространство : YUV
Субдискретизация насыщенности : 4:2:0
Битовая глубина : 8 бит
Тип развёртки : Прогрессивная
Бит/(Пиксели*Кадры) : 0.138
Размер потока : 693 Мбайт (93%)
Библиотека кодирования : x264 core 155 r2901 7d0ff22
Настройки программы : cabac=1 / ref=10 / deblock=1:-3:-3 / analyse=0x3:0x133 / me=umh / subme=11 / psy=1 / psy_rd=1.00:0.12 / mixed_ref=1 / me_range=32 / chroma_me=1 / trellis=2 / 8x8dct=1 / cqm=0 / deadzone=21,11 / fast_pskip=0 / chroma_qp_offset=-3 / threads=6 / lookahead_threads=1 / sliced_threads=0 / nr=0 / decimate=0 / interlaced=0 / bluray_compat=0 / constrained_intra=0 / bframes=10 / b_pyramid=2 / b_adapt=2 / b_bias=0 / direct=3 / weightb=1 / open_gop=0 / weightp=2 / keyint=240 / keyint_min=23 / scenecut=40 / intra_refresh=0 / rc_lookahead=40 / rc=2pass / mbtree=1 / bitrate=1012 / ratetol=1.0 / qcomp=0.60 / qpmin=0 / qpmax=69 / qpstep=4 / cplxblur=20.0 / qblur=0.5 / vbv_maxrate=50000 / vbv_bufsize=62500 / nal_hrd=none / filler=0 / ip_ratio=1.40 / aq=3:1.00
Default : Да
Forced : Нет

Аудио
Идентификатор : 2
Формат : AAC
Формат/Информация : Advanced Audio Codec
Профиль формата : HE-AAC / LC
Идентификатор кодека : A_AAC
Продолжительность : 1 ч. 35 м.
Битрейт : 76,0 Кбит/сек
Каналы : 2 канала
Расположение каналов : Front: L R
Частота : 48,0 КГц / 24,0 КГц
Частота кадров : 23,438 кадра/сек (1024 SPF)
Метод сжатия : С потерями
Задержка видео : 31 мс.
Размер потока : 52,1 Мбайт (7%)
Язык : Russian
Default : Да
Forced : Нет



Релиз от:


Скачать .torrent 746.43 МБ


Download
Для скачивания .torrent файлов необходима регистрация
Сайт не распространяет и не хранит электронные версии произведений, а лишь предоставляет доступ к создаваемому пользователями каталогу ссылок на торрент-файлы, которые содержат только списки хеш-сумм

Страница 1 из 1

Ответить на тему

   Похожие торренты   Торрент 




cron