Регистрация ·  Логин: Пароль: Запомнить   · Забыли пароль?



Торрент трекер atorrent.space.
Скачать торрент Капитан Марвел / Captain Marvel (2019) HDRip 1080p | Трейлер №2, размером 691.17 МБ



Ответить на тему
Статистика раздачи
Размер: 691.17 МБ | Зарегистрирован: 28 янв 2019, 22:52 | .torrent скачан: 18 раз(а)
Сидеров: [ 0  | 0 байт/сек ]   Личеров: [ 0  | 0 байт/сек ]   DHT: [ 0 / 0 ]
Автор Сообщение

Почётный релизер
Аватара пользователя

Стаж: 5 лет 6 месяцев
Сообщения: 2666
Откуда: Казань
Россия

Сообщение 28 янв 2019, 22:52 

[Цитировать]

«Быстрее. Выше. Сильнее»



Год выпуска: 2019
Производство: США / Marvel Studios Inc., Legacy Effects, Rising Sun Pictures
Жанр: Фантастика, боевик, приключения

Режиссер: Анна Боден, Райан Флек
Продюсеры: Кевин Файги, Виктория Алонсо, Луис Д’Эспозито
Актеры: Бри Ларсон, Джемма Чан, МакКенна Грейс, Джуд Лоу, Бен Мендельсон, Ли Пейс, Сэмюэл Л. Джексон, Рюн Темт, Аннетт Бенинг, Джимон Хонсу

Описание:
После столкновения с враждующими инопланетными расами пилот военно-воздушных сил Кэрол Дэнверс обретает суперсилу и становится неуязвимой. Героине предстоит совладать со своими новыми способностями, чтобы противостоять могущественному врагу.

Перевод: Дублированный
Субтитры: Нет
Дата мировой премьеры: 6 марта 2019
Дата российской премьеры: 7 марта 2019, «WDSSPR»


Продолжительность: 00:02:34
Качество видео: HDRip 1080pВидео: H264, 1920x800 (2.40:1), 32,9 Мбит/сек
Аудио 1: MP3 2.0, 128 Кбит/сек [Русский - дублированный]
Аудио 2: PCM 5.1, 6912 Кбит/сек [Английский - оригинал]
Общее
Уникальный идентификатор : 171590810607296734456557622296160040158 (0x81173022EEB645808DDB9AF35A54F4DE)
Полное имя : V:TorrentsCaptain Marvel (2019) HDRip [1080p] Trailer №2.mkv
Формат : Matroska
Версия формата : Version 4 / Version 2
Размер файла : 691 Мбайт
Продолжительность : 2 м. 34 с.
Общий поток : 37,5 Мбит/сек
Дата кодирования : UTC 2018-12-14 17:17:23
Программа кодирования : mkvmerge v29.0.0 ('Like It Or Not') 64-bit
Библиотека кодирования : libebml v1.3.6 + libmatroska v1.4.9

Видео
Идентификатор : 1
Формат : AVC
Формат/Информация : Advanced Video Codec
Профиль формата : [email protected]
Настройки формата : CABAC / 4 Ref Frames
Параметр CABAC формата : Да
Параметр RefFrames формата : 4 кадра
Идентификатор кодека : V_MPEG4/ISO/AVC
Продолжительность : 2 м. 25 с.
Битрейт : 32,9 Мбит/сек
Ширина : 1920 пикселей
Высота : 800 пикселей
Соотношение сторон : 2,40:1
Режим частоты кадров : Постоянный
Частота кадров : 23,976 (24000/1001) кадра/сек
Цветовое пространство : YUV
Субдискретизация насыщенности : 4:2:0
Битовая глубина : 8 бит
Тип развёртки : Прогрессивная
Бит/(Пиксели*Кадры) : 0.893
Размер потока : 569 Мбайт (82%)
Default : Да
Forced : Нет
Цветовой диапазон : Limited
Основные цвета : BT.709
Характеристики трансфера : BT.709
Коэффициенты матрицы : BT.709

Аудио #1
Идентификатор : 2
Формат : MPEG Audio
Версия формата : Version 1
Профиль формата : Layer 3
Настройки формата : Joint stereo
Режим : Joint stereo
Идентификатор кодека : A_MPEG/L3
Идентификатор кодека/Подсказка : MP3
Продолжительность : 2 м. 34 с.
Вид битрейта : Постоянный
Битрейт : 128 Кбит/сек
Каналы : 2 канала
Частота : 44,1 КГц
Частота кадров : 38,281 кадров/сек (1152 SPF)
Метод сжатия : С потерями
Размер потока : 2,35 Мбайт (0%)
Заголовок : Dub
Язык : Russian
Default : Да
Forced : Нет

Аудио #2
Идентификатор : 3
Формат : PCM
Идентификатор кодека : A_PCM/INT/LIT
Продолжительность : 2 м. 25 с.
Вид битрейта : Постоянный
Битрейт : 6912 Кбит/сек
Каналы : 6 каналов
Частота : 48,0 КГц
Частота кадров : 32,006 кадра/сек (1500 SPF)
Битовая глубина : 24 бит
Задержка видео : 6 мс.
Размер потока : 120 Мбайт (17%)
Язык : English
Default : Нет
Forced : Нет



Скачать .torrent 691.17 МБ


Download
Для скачивания .torrent файлов необходима регистрация
Сайт не распространяет и не хранит электронные версии произведений, а лишь предоставляет доступ к создаваемому пользователями каталогу ссылок на торрент-файлы, которые содержат только списки хеш-сумм

Страница 1 из 1

Ответить на тему

   Похожие торренты   Торрент 




cron