Регистрация ·  Логин: Пароль: Запомнить   · Забыли пароль?



Торрент трекер atorrent.space.
Скачать торрент Лепестки с шипами / The Petal Pushers (2019) HDRip-AVC | L2, размером 1.08 ГБ



Ответить на тему
Статистика раздачи
Размер: 1.08 ГБ | Зарегистрирован: 28 янв 2019, 22:53 | .torrent скачан: 69 раз(а)
Сидеров: [ 14  | 0 байт/сек ]   Личеров: [ 1  | 0 байт/сек ]   DHT: [ 14 / 1 ]
Автор Сообщение

Почётный релизер
Аватара пользователя

Стаж: 5 лет 6 месяцев
Сообщения: 2666
Откуда: Казань
Россия

Сообщение 28 янв 2019, 22:53 

[Цитировать]


Информация о фильме
Название: Лепестки с шипами
Оригинальное название: The Petal Pushers

Год выхода: 2019
Жанр: Комедия
Режиссер: Роберт Торранс
В ролях: Кейтлин Блэк, Исидора Горештер, Бриди Эллиотт, Лэйрд Макинтош, Дельпано Виллис, Роберта Бэссин, Томас Ф. Эванс, Кристина Доусон, Элли Шоя, Перри Смит
О фильме:
Чтобы сохранить семейный бизнес, две сестры, владеющие цветочным магазином, вынуждены вступить в противостояние со своим жуликоватым отчимом, который, возможно, был причастен к смерти их матери.



Страна: США, Smoketree Entertainment, Poison Flowers
Продолжительность: 01:15:06
Перевод: Любительский (двухголосый закадровый) | HiWay Grope

Файл
Кодек: MPEG-4 AVC/x.264
Качество: HDRip-AVC
Видео: 720x304, 23.976 fps, ~1891 kbps, 0.360 bit/pixel
Звук:
Аудио rus: AC3, 48 kHz, 2 ch, 192 Kbps
Субтитры: отсутствуют

Реклама: присутствует

Семпл

General
Unique ID : 328674734215399955767711151565156384114 (0xF7447385B3F6196AFE21E5F8F117FD72)
Complete name : D:The.Petal.Pushers.2019.HDRip-AVC.HiWayGropeThe.Petal.Pushers.2019.HDRip-AVC.HiWayGrope.mkv
Format : Matroska
Format version : Version 4
File size : 1.08 GiB
Duration : 1 h 14 min
Overall bit rate : 2 085 kb/s
Encoded date : UTC 2019-01-25 05:53:48
Writing application : mkvmerge v30.0.0 ('Interstellar') 64-bit
Writing library : libebml v1.3.6 + libmatroska v1.4.9

Video
ID : 1
Format : AVC
Format/Info : Advanced Video Codec
Format profile : [email protected]
Format settings : CABAC / 4 Ref Frames
Format settings, CABAC : Yes
Format settings, RefFrames : 4 frames
Codec ID : V_MPEG4/ISO/AVC
Duration : 1 h 14 min
Bit rate : 1 891 kb/s
Width : 720 pixels
Height : 304 pixels
Display aspect ratio : 2.35:1
Frame rate mode : Constant
Frame rate : 23.976 (24000/1001) FPS
Standard : NTSC
Color space : YUV
Chroma subsampling : 4:2:0
Bit depth : 8 bits
Scan type : Progressive
Bits/(Pixel*Frame) : 0.360
Stream size : 1 005 MiB (91%)
Language : English
Default : Yes
Forced : No
Color range : Limited
Color primaries : BT.601 NTSC
Transfer characteristics : BT.601
Matrix coefficients : BT.601

Audio
ID : 2
Format : AC-3
Format/Info : Audio Coding 3
Commercial name : Dolby Digital
Codec ID : A_AC3
Duration : 1 h 14 min
Bit rate mode : Constant
Bit rate : 192 kb/s
Channel(s) : 2 channels
Channel layout : L R
Sampling rate : 48.0 kHz
Frame rate : 31.250 FPS (1536 SPF)
Bit depth : 16 bits
Compression mode : Lossy
Stream size : 102 MiB (9%)
Language : Russian
Service kind : Complete Main
Default : Yes
Forced : No



Релиз от: HiWay Grope


Скачать .torrent 1.08 ГБ


Download
Для скачивания .torrent файлов необходима регистрация
Сайт не распространяет и не хранит электронные версии произведений, а лишь предоставляет доступ к создаваемому пользователями каталогу ссылок на торрент-файлы, которые содержат только списки хеш-сумм

Страница 1 из 1

Ответить на тему

   Похожие торренты   Торрент