Регистрация ·  Логин: Пароль: Запомнить   · Забыли пароль?



Торрент трекер atorrent.space.
Скачать торрент Полярный / Polar (2019) WEBRip 1080p | LakeFilms, размером 3.29 ГБ



Ответить на тему
Статистика раздачи
Размер: 3.29 ГБ | Зарегистрирован: 28 янв 2019, 22:53 | .torrent скачан: 6 раз(а)
Сидеров: [ 10  | 0 байт/сек ]   Личеров: [ 0  | 0 байт/сек ]   DHT: [ 0 / 0 ]
Автор Сообщение

Почётный релизер
Аватара пользователя

Стаж: 5 лет 4 месяца
Сообщения: 2666
Откуда: Казань
Россия

Сообщение 28 янв 2019, 22:53 

[Цитировать]


Название: Полярный
Оригинальное название: Polar
Год выпуска: 2019
Жанр: Боевик, криминал
Выпущено: США, Германия, Constantin Film, Dark Horse Entertainment
Режиссер: Йонас Окерлунд
В ролях: Мадс Миккельсен, Ванесса Энн Хадженс, Кэтрин Уинник, Руби О. Фи, Джонни Ноксвилл, Мэтт Лукас, Сима Фишер, Роберт Мэйллет, Фэй Рен, Инга Кадранел

О фильме: Дункан Визла - один из самых опасных киллеров в мире, известный под прозвищем Черный Кайзер. Когда-то он убивал людей по всему свету, но теперь наслаждается мирным существованием и давно уже не брал в руки оружие.Только вот бывший клиент, с которым у Дункана произошел небольшой конфликт, не собирается забывать старые обиды. В скором времени мирной жизни бывшего киллера придет конец, когда за Дунканом начнет охоту армия из молодых и беспощадных убийц. Для спасения жизни ему предстоит использовать все полученные за долгие годы заказных убийств навыки и знания.


Техданные
Качество: WEBRip (1080p)
Видео: MPEG-4 AVC, 3 666 Kb/s, 1920x960, 23.976 FPS
Аудио: AAC, 2 ch, 317 Кбит/с
Продолжительность: 01:58:59
Перевод: Любительский двухголосый закадровый (LakeFilms)
Присутствует реклама!


General
Unique ID : 28510677653398589737096315455240958837 (0x1572F4EFB6C829C199549ECEE3087375)
Complete name : D:новые фильмыPolar.2019.1080p.HDRip.LakeFilms.mkv
Format : Matroska
Format version : Version 4
File size : 3.29 GiB
Duration : 1 h 58 min
Overall bit rate : 3 986 kb/s
Encoded date : UTC 2019-01-25 13:24:59
Writing application : mkvmerge v29.0.0 ('Like It Or Not') 64-bit
Writing library : libebml v1.3.6 + libmatroska v1.4.9

Video
ID : 1
Format : AVC
Format/Info : Advanced Video Codec
Format profile : [email protected]
Format settings : CABAC / 4 Ref Frames
Format settings, CABAC : Yes
Format settings, ReFrames : 4 frames
Codec ID : V_MPEG4/ISO/AVC
Duration : 1 h 58 min
Bit rate : 3 666 kb/s
Width : 1 920 pixels
Height : 960 pixels
Display aspect ratio : 2.000
Frame rate mode : Constant
Frame rate : 23.976 (24000/1001) FPS
Color space : YUV
Chroma subsampling : 4:2:0
Bit depth : 8 bits
Scan type : Progressive
Bits/(Pixel*Frame) : 0.083
Stream size : 3.03 GiB (92%)
Language : English
Default : Yes
Forced : No
Color range : Limited
Color primaries : BT.709
Transfer characteristics : BT.709
Matrix coefficients : BT.709

Audio
ID : 2
Format : AAC LC
Format/Info : Advanced Audio Codec Low Complexity
Codec ID : A_AAC-2
Duration : 1 h 58 min
Bit rate : 317 kb/s
Channel(s) : 2 channels
Channel layout : L R
Sampling rate : 48.0 kHz
Frame rate : 46.875 FPS (1024 SPF)
Compression mode : Lossy
Stream size : 268 MiB (8%)
Language : English
Default : Yes
Forced : No


Скачать .torrent 3.29 ГБ


Download
Для скачивания .torrent файлов необходима регистрация
Сайт не распространяет и не хранит электронные версии произведений, а лишь предоставляет доступ к создаваемому пользователями каталогу ссылок на торрент-файлы, которые содержат только списки хеш-сумм

Страница 1 из 1

Ответить на тему

   Похожие торренты   Торрент