Регистрация ·  Логин: Пароль: Запомнить   · Забыли пароль?



Торрент трекер atorrent.space.
Скачать торрент По обмену / Foreign Exchange / Deadly Switch (2019) WEBRip 720p | L2, размером 1.93 ГБ



Ответить на тему
Статистика раздачи
Размер: 1.93 ГБ | Зарегистрирован: 28 янв 2019, 22:53 | .torrent скачан: 22 раз(а)
Сидеров: [ 44  | 0 байт/сек ]   Личеров: [ 1  | 0 байт/сек ]   DHT: [ 44 / 1 ]
Автор Сообщение

Почётный релизер
Аватара пользователя

Стаж: 5 лет 6 месяцев
Сообщения: 2666
Откуда: Казань
Россия

Сообщение 28 янв 2019, 22:53 

[Цитировать]


Информация о фильме
Название: По обмену
Оригинальное название: Foreign Exchange / Deadly Switch

Год выхода: 2019
Жанр: Триллер
Режиссер: Светлана Цветко
В ролях: Хейли МакЛафлин, Даника Ярош, Дилан Уолш, Тери Поло, Мэтт Пассмор, Боти Блисс, Хезер Мазур, Брайс Дарфи, Эшлин Пирс, Кэрри Гибсон
О фильме:
Студентку по обмену в Америке, Анну, преследует какой-то подозрительный тип. Подруга из колледжа вызывается ей помочь. Но несмотря на все их действия, сталкер снова находит девушку. Студентки решают поехать за город, к родителям подруги-спасительницы. Кажется, жизнь в их маленьком поселке просто идеальна. Даже слишком...



Страна: США, Headlong Entertainment, Ana Pictures, Benattar/Thomas Productions
Продолжительность: 01:26:37
Перевод: Любительский (двухголосый закадровый) | HiWay Grope

Файл
Кодек: MPEG-4 AVC/x.264
Качество: WEBRip 720p
Видео: 1280x720, 23.976 fps, ~2992 kbps, 0.135 bit/pixel
Звук:
Аудио rus: AC3, 48 kHz, 2 ch, 192 Kbps
Субтитры: отсутствуют

Реклама: присутствует

Семпл

General
Unique ID : 263378270554685912676479352068711324342 (0xC624CF4ECE162531DB9822632CF31AB6)
Complete name : D:Foreign.Exchange.2019.720p.WEBRip.HiWayGropeForeign.Exchange.2019.720p.WEBRip.HiWayGrope.mkv
Format : Matroska
Format version : Version 4
File size : 1.93 GiB
Duration : 1 h 26 min
Overall bit rate mode : Variable
Overall bit rate : 3 186 kb/s
Encoded date : UTC 2019-01-27 03:15:26
Writing application : mkvmerge v25.0.0 ('Prog Noir') 64-bit
Writing library : libebml v1.3.6 + libmatroska v1.4.9

Video
ID : 1
Format : AVC
Format/Info : Advanced Video Codec
Format profile : [email protected]
Format settings : CABAC / 4 Ref Frames
Format settings, CABAC : Yes
Format settings, RefFrames : 4 frames
Codec ID : V_MPEG4/ISO/AVC
Duration : 1 h 26 min
Bit rate mode : Variable
Bit rate : 2 992 kb/s
Maximum bit rate : 12.0 Mb/s
Width : 1 280 pixels
Height : 720 pixels
Display aspect ratio : 16:9
Frame rate mode : Constant
Frame rate : 23.976 (24000/1001) FPS
Standard : NTSC
Color space : YUV
Chroma subsampling : 4:2:0
Bit depth : 8 bits
Scan type : Progressive
Bits/(Pixel*Frame) : 0.135
Stream size : 1.81 GiB (94%)
Language : English
Default : Yes
Forced : No
Color range : Limited
Color primaries : BT.709
Transfer characteristics : BT.709
Matrix coefficients : BT.709

Audio
ID : 2
Format : AC-3
Format/Info : Audio Coding 3
Commercial name : Dolby Digital
Codec ID : A_AC3
Duration : 1 h 26 min
Bit rate mode : Constant
Bit rate : 192 kb/s
Channel(s) : 2 channels
Channel layout : L R
Sampling rate : 48.0 kHz
Frame rate : 31.250 FPS (1536 SPF)
Bit depth : 16 bits
Compression mode : Lossy
Stream size : 119 MiB (6%)
Service kind : Complete Main
Default : Yes
Forced : No



Релиз от: HiWay Grope


Скачать .torrent 1.93 ГБ


Download
Для скачивания .torrent файлов необходима регистрация
Сайт не распространяет и не хранит электронные версии произведений, а лишь предоставляет доступ к создаваемому пользователями каталогу ссылок на торрент-файлы, которые содержат только списки хеш-сумм

Страница 1 из 1

Ответить на тему

   Похожие торренты   Торрент 




cron