Регистрация ·  Логин: Пароль: Запомнить   · Забыли пароль?



Торрент трекер atorrent.space.
Скачать торрент (Opera) Gaetano Donizetti - Lucia di Lammermoor / Доницетти - Лючия ди Ламмермур (Caballe / Кабалье, Carreras / Каррерас, H.Ahnsjo, Ramey) - 1995, APE (image+.cue), lossless, размером 580.31 МБ



Ответить на тему
Статистика раздачи
Размер: 580.31 МБ | Зарегистрирован: 11 фев 2019, 22:46 | .torrent скачан: 0 раз(а)
Сидеров: [ 1  | 0 байт/сек ]   Личеров: [ 0  | 0 байт/сек ]   DHT: [ 1 / 0 ]
Автор Сообщение

Почётный релизер
Аватара пользователя

Стаж: 5 лет 6 месяцев
Сообщения: 2666
Откуда: Казань
Россия

Сообщение 11 фев 2019, 22:46 

[Цитировать]

Gaetano Donizetti - Lucia di Lammermoor / Доницетти - Лючия ди Ламмермур
Жанр: Opera
Год выпуска диска: 1995
Производитель диска: Philips
Аудио кодек: APE
Тип рипа: image+.cue
Битрейт аудио: lossless
Продолжительность: CD 1 - 01:08:59; CD 2 - 01:13:58
Действующие лица и испонители:
Lucia - Montserrat Caballe
Edgardo - Jose Carreras
Arturo - Claes H.Ahnsjo
Enrico - Vicente Sardinero
Raimondo - Samuel Ramey
Alisa - Ann Murray
Normanno - Vincenzo Bello
Ambrosian Opera Chorus
New Philharmonia Orchestra

Conductor - Jesus Lopez-Cobos
Лючия ди Ламмермур
Опера в трёх действиях
Трагическая драма в двух частях.
либретто С. Каммарано по роману В. Скотта "Ламмермурская невеста".
Действующие лица:
Лорд Генрих Астон (баритон)
Лючия, его сестра (сопрано)
Сэр Эдгар Равенсвуд (тенор)
Лорд Артур Бёклоу (тенор)
Раймонд Бидебенд, воспитатель Лючии (бас)
Алиса, подруга Лючии (меццо-сопрано)
Норман, начальник воинов в замке Равенсвуд (тенор)
Дамы и кавалеры, приверженцы Астона, обитатели Ламмермура, пажи, воины, слуги Астона.
Действие происходит в конце XVI века в Шотландии в замке Равенсвуд и в развалинах башни Вольфераг.
Действие первое. Картина первая.
Издавна враждовали между собой два старинных рода - Равенсвуд и Астон. Для одного из них распря завершилась плачевно: замок Равенсвудов был захвачен лордом Генрихом Астоном. Владелец замка убит, но победитель ещё не чувствует себя здесь полновластным хозяином: ведь сын Равенсвуда - Эдгар - остался жив... Тревогу Генриха усугубляют также расстроенные денежные дела. Брак его сестры Лючии со знатным и могущественным лордом Артуром Бёклоу мог бы упрочить положение семьи, но, увы, Лючия отказывается выйти замуж. Воспитатель девушки Раймонд Бидебенд убеждает Генриха не гневаться на сестру, объясняя её отказ скорбью по недавно умершей матери. Но Генрих настаивает на браке.
Норман, начальник воинов в замке Равенсвуд, открывает Генриху истинную причину его затруднений. Оказывается, девушка любит Эдгара Равенсвуда. Юноша также всем сердцем привязался к Лючии и, рискуя жизнью, приходит на свидание с ней в одну из аллей старинного парка.
Генрих потрясён. Любовь сестры к сыну его злейшего врага - бесчестье для всего рода Астон. Стражники сообщают Генриху, что видели недавно Эдгара у развалин старой башни, но задержать его не успели. Новый хозяин замка требует, чтобы юноша был пойман.
Картина вторая.
Над замком Равенсвуд спускаются сумерки. Лючия и её подруга Алиса выходят в парк. Девушки осматриваются. Но никого нет. Эдгар, которого ждёт Лючия, ещё не пришёл. Алиса напоминает подруге о брате: вдруг он застанет Эдгара в парке. Но Лючия уверена, что опасения напрасны: юноша достаточно осторожен. Девушку волнует другое. Когда-то один из Равенсвудов - предок Эдгара - близ фонтана, где они стояли, в припадке ревности убил свою жену. Тень несчастной женщины на днях явилась Лючии. Алиса уверена, что это дурное предзнаменование: не лучше ли покончить с пагубной страстью?
Но вот приходит конец томительному ожиданию. Лючия бросается навстречу Эдгару. Однако радость её омрачена неожиданной новостью: юноша уезжает во Францию. Поклявшись друг другу в верности, влюблённые обмениваются обручальными кольцами.
Действие второе. Картина первая.
Генрих Астон по-прежнему настаивает на свадьбе сестры с лордом Бёклоу. Напрасны мольбы и слёзы несчастной - брат непреклонен. Когда же девушка решается сказать, что связана клятвой с другим, Генрих показывает ей подложное письмо, свидетельствующее о вероломстве Эдгара. Лючия в отчаянии. Даже верный наставник Бидебенд не находит для неё утешительных слов. Веря в измену Эдгара, он умоляет девушку смириться. По приказу Генриха Астона в замке начинаются приготовления к торжественному брачному обряду.
Картина вторая.
В Равенсвуде ждут жениха. В роскошных апартаментах замка собрались приверженцы Астона - кавалеры и дамы, пажи и воины, знатные жители Ламмермура и их супруги. Гости восторженно приветствуют прибывшего лорда Бёклоу. Генрих просит жениха не удивляться: сестра покажется ему печальной. Недавняя смерть матери - причина её скорби.
Бидебенд и Алиса вводят невесту. Почти бессознательно подписывает Лючия вслед за женихом брачный контракт.
Внезапное появление Эдгара приводит в смятение присутствующих. Генрих Астон и Артур Бёклоу обнажают шпаги. Эдгар готов принять бой. Но между врагами встает Бидебенд. Он показывает Эдгару брачный контракт. Юноша не верит своим глазам: возлюбленная изменила ему. В отчаянии бросает он к ногам Лючии обручальное кольцо, требуя обратно своё. Затем, опустив шпагу, поворачивается к противникам: Лючия для него потеряна, к чему теперь жить. Никто, однако, не решается пролить кровь несчастного. Эдгар беспрепятственно покидает замок.
Действие третье. Картина первая.
Найдя себе пристанище в башне Вольфераг, в старом полуразрушенном замке своих предков, Эдгар предаётся мрачным воспоминаниям. Его одиночество нарушает Генрих. Он вызывает Эдгара на дуэль. Враги сразятся завтра на утренней заре.
Картина вторая.
В замке Астонов - свадебный пир. В разгар веселья появляется Бидебенд. Он приносит страшную весть: в порыве отчаянья, потеряв рассудок, сестра Генриха убила лорда Артура. Показывается несчастная Лючия. Её взор безумен.
Обращаясь к невидимому Эдгару, она умоляет простить её. Алиса уводит Лючию. Вслед за ними удаляется подавленный горем лорд Генрих.
Картина третья.
Раннее утро. Эдгар приходит к склепу замка Равенсвуд, чтобы сразиться с Генрихом. Вид удручённых гостей, выходящих из замка, вызывает у него тревогу. Юноше рассказывают о страшном несчастье. Подтверждая печальную весть, раздаётся протяжный и монотонный звон колокола.
Эдгар бросается в замок. Ему нужно только одно - видеть Лючию. Дорогу юноше преграждает Бидебенд: Лючии больше нет. Эдгар выхватывает кинжал...
Подбежавшим гостям остаётся одно - пасть на колени, моля небеса простить самоубийце его грех.
Exact Audio Copy V0.99 prebeta 4 from 23. January 2008
Отчёт EAC об извлечении, выполненном 11. апреля 2009, 22:18
Gaetano Donizetti / Lucia di Lammermoor (Disk 1 of 2)
Дисковод: ASUS DRW-1814BL Adapter: 1 ID: 0
Режим чтения : Достоверность
Использование точного потока : Да
Отключение кэша аудио : Да
Использование указателей C2 : Нет
Коррекция смещения при чтении : 6
Способность читать области Lead-in и Lead-out : Нет
Заполнение пропущенных сэмплов тишиной : Да
Удаление блоков с тишиной в начале и конце : Нет
При вычислениях CRC использовались нулевые сэмплы : Да
Интерфейс : Установленный внешний ASPI-интерфейс
Выходной формат : Внутренние WAV-операции
Формат сэмплов : 44.100 Гц; 16 бит; стерео
TOC извлечённого CD
Трек | Старт | Длительность | Начальный сектор | Конечный сектор
---------------------------------------------------------------------
1 | 0:00.32 | 4:21.58 | 32 | 19664
2 | 4:22.15 | 2:56.02 | 19665 | 32866
3 | 7:18.17 | 2:12.25 | 32867 | 42791
4 | 9:30.42 | 5:54.33 | 42792 | 69374
5 | 15:25.00 | 4:35.00 | 69375 | 89999
6 | 20:00.00 | 4:41.20 | 90000 | 111094
7 | 24:41.20 | 4:17.15 | 111095 | 130384
8 | 28:58.35 | 2:49.15 | 130385 | 143074
9 | 31:47.50 | 6:12.55 | 143075 | 171029
10 | 38:00.30 | 5:24.07 | 171030 | 195336
11 | 43:24.37 | 2:51.33 | 195337 | 208194
12 | 46:15.70 | 5:44.42 | 208195 | 234036
13 | 52:00.37 | 3:32.65 | 234037 | 250001
14 | 55:33.27 | 1:28.13 | 250002 | 256614
15 | 57:01.40 | 2:56.50 | 256615 | 269864
16 | 59:58.15 | 2:17.60 | 269865 | 280199
17 | 62:16.00 | 2:30.25 | 280200 | 291474
18 | 64:46.25 | 4:12.50 | 291475 | 310424
Характеристики диапазона извлечения и сообщения об ошибках
Выбранный диапазон
Имя файла I:\Music\Music for Andre\Temp\Новая папка\Новая папка (2)\Gaetano Donizetti - Lucia di Lammermoor (Disk 1 of 2).wav
Пиковый уровень 93.9 %
Качество диапазона 100.0 %
CRC копии A9467C86
Копирование... OK
Ошибок не произошло
Конец отчёта
Exact Audio Copy V0.99 prebeta 4 from 23. January 2008
Отчёт EAC об извлечении, выполненном 11. апреля 2009, 22:29
Gaetano Donizetti / Lucia di Lammermoor (Disk 2 of 2)
Дисковод: ASUS DRW-1814BL Adapter: 1 ID: 0
Режим чтения : Достоверность
Использование точного потока : Да
Отключение кэша аудио : Да
Использование указателей C2 : Нет
Коррекция смещения при чтении : 6
Способность читать области Lead-in и Lead-out : Нет
Заполнение пропущенных сэмплов тишиной : Да
Удаление блоков с тишиной в начале и конце : Нет
При вычислениях CRC использовались нулевые сэмплы : Да
Интерфейс : Установленный внешний ASPI-интерфейс
Выходной формат : Внутренние WAV-операции
Формат сэмплов : 44.100 Гц; 16 бит; стерео
TOC извлечённого CD
Трек | Старт | Длительность | Начальный сектор | Конечный сектор
---------------------------------------------------------------------
1 | 0:00.00 | 3:32.33 | 0 | 15932
2 | 3:32.33 | 1:41.70 | 15933 | 23577
3 | 5:14.28 | 2:23.05 | 23578 | 34307
4 | 7:37.33 | 3:50.60 | 34308 | 51617
5 | 11:28.18 | 1:19.42 | 51618 | 57584
6 | 12:47.60 | 2:08.40 | 57585 | 67224
7 | 14:56.25 | 2:19.38 | 67225 | 77687
8 | 17:15.63 | 10:34.00 | 77688 | 125237
9 | 27:49.63 | 2:14.50 | 125238 | 135337
10 | 30:04.38 | 6:10.47 | 135338 | 163134
11 | 36:15.10 | 6:48.38 | 163135 | 193772
12 | 43:03.48 | 4:01.55 | 193773 | 211902
13 | 47:05.28 | 3:09.17 | 211903 | 226094
14 | 50:14.45 | 4:24.68 | 226095 | 245962
15 | 54:39.38 | 2:02.10 | 245963 | 255122
16 | 56:41.48 | 4:14.15 | 255123 | 274187
17 | 60:55.63 | 3:35.32 | 274188 | 290344
18 | 64:31.20 | 4:17.25 | 290345 | 309644
19 | 68:48.45 | 5:10.29 | 309645 | 332923
Характеристики диапазона извлечения и сообщения об ошибках
Выбранный диапазон
Имя файла I:\Music\Music for Andre\Temp\Новая папка\Donizetti - Lucia di Lammermoor\CD 2\Gaetano Donizetti - Lucia di Lammermoor (Disk 2 of 2).wav
Пиковый уровень 95.5 %
Качество диапазона 100.0 %
CRC копии 5736FF62
Копирование... OK
Ошибок не произошло
Конец отчёта


Скачать .torrent 580.31 МБ


Download
Для скачивания .torrent файлов необходима регистрация
Сайт не распространяет и не хранит электронные версии произведений, а лишь предоставляет доступ к создаваемому пользователями каталогу ссылок на торрент-файлы, которые содержат только списки хеш-сумм

Страница 1 из 1

Ответить на тему

   Похожие торренты   Торрент