Регистрация ·  Логин: Пароль: Запомнить   · Забыли пароль?



Торрент трекер atorrent.space.
Скачать торрент Трудный путь / The Hard Way (2019) WEBRip | Sub, размером 1.46 ГБ



Ответить на тему
Статистика раздачи
Размер: 1.46 ГБ | Зарегистрирован: 06 мар 2019, 12:09 | .torrent скачан: 15 раз(а)
Сидеров: [ 0  | 0 байт/сек ]   Личеров: [ 0  | 0 байт/сек ]   DHT: [ 0 / 0 ]
Автор Сообщение

Модератор видео
Аватара пользователя

Стаж: 5 месяцев 17 дней
Сообщения: 507
Россия

Сообщение 06 мар 2019, 12:09 

[Цитировать]


Страна: США
Производство: Actionhouse Pictures, Hollywood Media Bridge
Год выпуска: 2019
Жанр: боевик
Продолжительность: 01:33:41

Режиссер: Киони Ваксман
Авторы сценария: Томас Дж. Черчилль, Киони Ваксман
В ролях: Рэнди Кутюр, Люк Госс, Джордж Ремис, Майкл Джей Уайт, Мадалина Анеа, Грант Кэмпбелл, Овидиу Никулеску

Описание: Узнав, что брат погиб на миссии в Румынии, бывший солдат объединяется с двумя союзниками, чтобы выследить загадочного врага и отомстить...



Перевод: отсутствует | субтитры
Субтитры: русские (full) / отдельным файлом

Качество: WEBRip | исходник - The.Hard.Way.2019.1080p.NF.WEBRip.DD5.1.x264-CM
Формат: AVI
Видео кодек: XviD
Аудио кодек: АС3
Видео: 720x400 (16:9), 23.976 fps, XviD build 65 ~1 835 kbps avg
Аудио: 48.0 kHz, AC3 Dolby Digital, 3/2 (L,C,R,l,r) + LFE ch, ~384 kbps | ENG
Формат субтитров: *SRT

Дата премьеры (мир): 20 марта 2019 (сегодня 6 марта 2019 г.)



Релиз от: Ториял
General
Format : AVI
Format/Info : Audio Video Interleave
File size : 1.46 GiB
Duration : 1 h 33 min
Overall bit rate : 2 229 kb/s
Writing application : VirtualDubMod 1.5.10.3 | (build 2550/release)
Writing library : VirtualDubMod build 2550/release

Video
ID : 0
Format : MPEG-4 Visual
Format profile : Advanced [email protected]
Format settings : BVOP1 / Custom Matrix
Format settings, BVOP : 1
Format settings, QPel : No
Format settings, GMC : No warppoints
Format settings, Matrix : Custom
Codec ID : XVID
Codec ID/Hint : XviD
Duration : 1 h 33 min
Bit rate : 1 835 kb/s
Width : 720 pixels
Height : 400 pixels
Display aspect ratio : 16:9
Frame rate : 23.976 (24000/1001) FPS
Original frame rate : 23.979 FPS
Color space : YUV
Chroma subsampling : 4:2:0
Bit depth : 8 bits
Scan type : Progressive
Compression mode : Lossy
Bits/(Pixel*Frame) : 0.266
Stream size : 1.20 GiB (82%)
Writing library : XviD 65

Audio
ID : 1
Format : AC-3
Format/Info : Audio Coding 3
Commercial name : Dolby Digital
Codec ID : 2000
Duration : 1 h 33 min
Bit rate mode : Constant
Bit rate : 384 kb/s
Channel(s) : 6 channels
Channel positions : Front: L C R, Side: L R, LFE
Sampling rate : 48.0 kHz
Frame rate : 31.250 FPS (1536 SPF)
Bit depth : 16 bits
Compression mode : Lossy
Stream size : 257 MiB (17%)
Alignment : Split accross interleaves
Interleave, duration : 42 ms (1.00 video frame)
Interleave, preload duratio : 500 ms


Скачать .torrent 1.46 ГБ


Download
Для скачивания .torrent файлов необходима регистрация
Сайт не распространяет и не хранит электронные версии произведений, а лишь предоставляет доступ к создаваемому пользователями каталогу ссылок на торрент-файлы, которые содержат только списки хеш-сумм

Страница 1 из 1

Ответить на тему

   Похожие торренты   Торрент 




cron