Регистрация ·  Логин: Пароль: Запомнить   · Забыли пароль?



Торрент трекер atorrent.space.
Скачать торрент Бамблби / Bumblebee (2018) BDRip 1080p | Лицензия, размером 8.7 ГБ



Ответить на тему
Статистика раздачи
Размер: 8.7 ГБ | Зарегистрирован: 09 апр 2019, 16:47 | .torrent скачан: 179 раз(а)
Сидеров: [ 492  | 0 байт/сек ]   Личеров: [ 23  | 0 байт/сек ]   DHT: [ 492 / 23 ]
Автор Сообщение

Модератор видео
Аватара пользователя

Стаж: 7 месяцев 19 дней
Сообщения: 507
Россия

Сообщение 09 апр 2019, 16:47 

[Цитировать]



Название: Бамблби
Оригинальное название: Bumblebee
Год выпуска: 2018
Жанр: Фантастика, боевик, приключения
Режиссер: Трэвис Найт
В ролях: Дилан О`Брайэн, Хейли Стайнфелд, Джастин Теру, Джон Сина, Анджела Бассетт, Памела Адлон, Мегин Прайс, Грей ДеЛайл, Питер Каллен, Кеннет Чои

О фильме: 1987 год. Скрываясь от преследования, Бамблби находит убежище на автомобильной свалке в калифорнийском городке, где живет Чарли. Девушке скоро исполнится 18, она стремится найти свое место в жизни. И именно она наталкивается на покореженного и сломленного Бамблби. Приведя его в чувство, Чарли моментально осознает: на ее пути оказался не простой желтый Фольксваген Жук.



Страна: США, Китай
Студия: Hasbro Inc., Paramount Pictures, Allspark Pictures, Bay Films, Di Bonaventura Pictures, Tencent Pictures, Tom DeSanto/Don Murphy Production
Продолжительность: 01:53:53
Перевод: Дублированный | Лицензия BD 4K EUR

Файл
Формат: MKV, BDRip 1080p
Видео: MPEG-4 AVC, 9666 Кбит/с, 1920x1080
Aудио#1: [RUS] AC3 | 48 KHz | 5.1 (Front: L С R Side: L R) + LFE | ~640 kbps
Aудио#2: [ENG] AC3 | 48 KHz | 5.1 (Front: L С R Side: L R) + LFE | ~640 kbps
Субтитры: Русские форсированные + полные, английские полные


Общее
Уникальный идентификатор : 217345659410997290068553715243201028452 (0xA383405A0FA2766CBCD604FF76876164)
Полное имя : H:Bumblebee.(2018).BDRip-1080p.MegaPeer.(qqss44).mkv
Формат : Matroska
Версия формата : Version 2
Размер файла : 8,70 Гбайт
Продолжительность : 1 ч. 53 м.
Общий поток : 10,9 Мбит/сек
Название фильма : Bumblebee.(2018).BDRip-1080p.MegaPeer.(qqss44)
Дата кодирования : UTC 2019-03-27 13:52:29
Программа кодирования : mkvmerge v7.8.0 ('River Man') 32bit built on Apr 3 2015 12:11:22
Библиотека кодирования : libebml v1.3.1 + libmatroska v1.4.2

Видео
Идентификатор : 1
Формат : AVC
Формат/Информация : Advanced Video Codec
Профиль формата : [email protected]
Параметр CABAC формата : Да
Параметр ReFrames формата : 4 кадра
Идентификатор кодека : V_MPEG4/ISO/AVC
Продолжительность : 1 ч. 53 м.
Битрейт : 9666 Кбит/сек
Ширина : 1920 пикселей
Высота : 1080 пикселей
Соотношение сторон : 16:9
Режим частоты кадров : Постоянный
Частота кадров : 23,976 (24000/1001) кадра/сек
Цветовое пространство : YUV
Субдискретизация насыщенности : 4:2:0
Битовая глубина : 8 бит
Тип развёртки : Прогрессивная
Бит/(Пиксели*Кадры) : 0.194
Размер потока : 7,51 Гбайт (86%)
Библиотека кодирования : x264 core 152 r2851 ba24899
Настройки программы : cabac=1 / ref=4 / deblock=1:0:0 / analyse=0x3:0x113 / me=umh / subme=11 / psy=1 / psy_rd=1.00:0.00 / mixed_ref=1 / me_range=32 / chroma_me=1 / trellis=2 / 8x8dct=1 / cqm=0 / deadzone=21,11 / fast_pskip=0 / chroma_qp_offset=-2 / threads=12 / lookahead_threads=2 / sliced_threads=0 / nr=0 / decimate=0 / interlaced=0 / bluray_compat=0 / constrained_intra=0 / bframes=9 / b_pyramid=2 / b_adapt=2 / b_bias=0 / direct=3 / weightb=1 / open_gop=0 / weightp=2 / keyint=250 / keyint_min=23 / scenecut=40 / intra_refresh=0 / rc_lookahead=40 / rc=2pass / mbtree=0 / bitrate=9666 / ratetol=1.0 / qcomp=0.75 / qpmin=0 / qpmax=69 / qpstep=4 / cplxblur=20.0 / qblur=0.5 / vbv_maxrate=50000 / vbv_bufsize=62500 / nal_hrd=none / filler=0 / ip_ratio=1.40 / pb_ratio=1.30 / aq=3:0.80
Язык : English
Default : Да
Forced : Нет

Аудио #1
Идентификатор : 2
Формат : AC-3
Формат/Информация : Audio Coding 3
Расширение режима : CM (complete main)
Параметр Endianness формата : Big
Идентификатор кодека : A_AC3
Продолжительность : 1 ч. 53 м.
Вид битрейта : Постоянный
Битрейт : 640 Кбит/сек
Каналы : 6 каналов
Расположение каналов : Front: L C R, Side: L R, LFE
Частота : 48,0 КГц
Частота кадров : 31,250 кадров/сек (1536 spf)
Метод сжатия : С потерями
Размер потока : 521 Мбайт (6%)
Язык : Russian
Default : Да
Forced : Нет

Аудио #2
Идентификатор : 3
Формат : AC-3
Формат/Информация : Audio Coding 3
Расширение режима : CM (complete main)
Параметр Endianness формата : Big
Идентификатор кодека : A_AC3
Продолжительность : 1 ч. 53 м.
Вид битрейта : Постоянный
Битрейт : 640 Кбит/сек
Каналы : 6 каналов
Расположение каналов : Front: L C R, Side: L R, LFE
Частота : 48,0 КГц
Частота кадров : 31,250 кадров/сек (1536 spf)
Метод сжатия : С потерями
Размер потока : 521 Мбайт (6%)
Язык : English
Default : Нет
Forced : Нет

Текст #1
Идентификатор : 4
Формат : UTF-8
Идентификатор кодека : S_TEXT/UTF8
Идентификатор кодека/Информация : UTF-8 Plain Text
Заголовок : FORCED
Язык : Russian
Default : Да
Forced : Нет

Текст #2
Идентификатор : 5
Формат : UTF-8
Идентификатор кодека : S_TEXT/UTF8
Идентификатор кодека/Информация : UTF-8 Plain Text
Заголовок : FULL
Язык : Russian
Default : Нет
Forced : Нет

Текст #3
Идентификатор : 6
Формат : UTF-8
Идентификатор кодека : S_TEXT/UTF8
Идентификатор кодека/Информация : UTF-8 Plain Text
Заголовок : FULL
Язык : English
Default : Нет
Forced : Нет

Меню
00:00:00.000 : ru:Глава 01
00:03:30.710 : ru:Глава 02
00:12:16.486 : ru:Глава 03
00:16:56.724 : ru:Глава 04
00:21:03.053 : ru:Глава 05
00:26:42.601 : ru:Глава 06
00:32:33.326 : ru:Глава 07
00:39:44.090 : ru:Глава 08
00:45:18.591 : ru:Глава 09
00:50:43.624 : ru:Глава 10
00:54:16.253 : ru:Глава 11
01:01:10.709 : ru:Глава 12
01:06:26.900 : ru:Глава 13
01:11:39.545 : ru:Глава 14
01:16:08.105 : ru:Глава 15
01:21:37.142 : ru:Глава 16
01:25:08.603 : ru:Глава 17
01:30:15.410 : ru:Глава 18
01:36:46.801 : ru:Глава 19
01:43:52.560 : ru:Глава 20
01:49:43.202 : ru:Глава 21


Скачать .torrent 8.7 ГБ


Download
Для скачивания .torrent файлов необходима регистрация
Сайт не распространяет и не хранит электронные версии произведений, а лишь предоставляет доступ к создаваемому пользователями каталогу ссылок на торрент-файлы, которые содержат только списки хеш-сумм

Страница 1 из 1

Ответить на тему

   Похожие торренты   Торрент 




cron