Регистрация ·  Логин: Пароль: Запомнить   · Забыли пароль?



Торрент трекер atorrent.space.
Скачать торрент Щелкунчик и четыре королевства / The Nutcracker and the Four Realms (2018) BDRip 1080p | Лицензия, размером 7.72 ГБ



Ответить на тему
Статистика раздачи
Размер: 7.72 ГБ | Зарегистрирован: 09 апр 2019, 16:59 | .torrent скачан: 464 раз(а)
Сидеров: [ 287  | 0 байт/сек ]   Личеров: [ 27  | 0 байт/сек ]   DHT: [ 287 / 27 ]
Автор Сообщение

Модератор видео
Аватара пользователя

Стаж: 7 месяцев 19 дней
Сообщения: 507
Россия

Сообщение 09 апр 2019, 16:59 

[Цитировать]



Название: Щелкунчик и четыре королевства
Оригинальное название: The Nutcracker and the Four Realms
Год выхода: 2018
Жанр: Фэнтези, приключения, семейный
Страна: США
Перевод: Дублированный | Лицензия BD RUS
Продолжительность: 01:39:16
Режиссер: Лассе Халльстрём, Джо Джонстон
В ролях: Маккензи Фой, Джейден Фовора-Найт, Кира Найтли, Хелен Миррен, Морган Фриман, Мисти Коуплэнд, Эухенио Дербес, Ричард Э. Грант, Мэттью Макфэдиен, Сергей Полунин и др.

О фильме: Получив необычный подарок на Рождество, юная Клара отправляется в захватывающее путешествие по загадочным местам: Стране Снегов, Стране Цветов и Стране Сладостей. Но девушке нужно попасть и в четвертое королевство, где ей придется столкнуться с целой армией мышей во главе с невероятно опасным Мышиным Королем.



Файл
Качество: BDRip 1080p
Видео: MPEG-4 AVC, 1920x1036, 10050 kbps, 23,976 fps
Звук#1: русский, AC3, 5.1 ch, 48 kHz, 640 kbps
Звук#2: английский, AC3, 5.1 ch, 48 kHz, 448 kbps
Субтитры: русские (полные, SDH), английские (полные, SDH)

General
Уникальный идентификатор : 180534851541058018037423663737450846765 (0x87D1BF6691E6489E8335D62909ACDA2D)
Полное имя : E:Torrent2The.Nutcracker.and.the.Four.RealmsLic.BDRip1080p.mkv
Формат : Matroska
Версия формата : Version 4 / Version 2
Размер файла : 7.72 GiB
Продолжительность : 1 h 39 min
Общий поток : 11.1 Mb/s
Дата кодирования : UTC 2019-03-29 18:35:20
Программа кодирования : mkvmerge v9.5.0 ('Quiet Fire') 64bit
Библиотека кодирования : libebml v1.3.4 + libmatroska v1.4.5

Video
Идентификатор : 1
Формат : AVC
Формат/Информация : Advanced Video Codec
Профиль формата : [email protected]
Настройки формата : CABAC / 4 Ref Frames
Параметр CABAC формата : Yes
Параметр RefFrames формата : 4 frames
Идентификатор кодека : V_MPEG4/ISO/AVC
Продолжительность : 1 h 39 min
Битрейт : 10.1 Mb/s
Ширина : 1 920 pixels
Высота : 1 036 pixels
Соотношение сторон : 1.85:1
Режим частоты кадров : Constant
Частота кадров : 23.976 (24000/1001) FPS
Цветовое пространство : YUV
Субдискретизация насыщенности : 4:2:0
Битовая глубина : 8 bits
Тип развёртки : Progressive
Бит/(Пиксели*Кадры) : 0.211
Размер потока : 6.97 GiB (90%)
Библиотека кодирования : x264 core 157 r2935 545de2f
Настройки программы : cabac=1 / ref=4 / deblock=1:-2:-2 / analyse=0x3:0x113 / me=umh / subme=11 / psy=1 / psy_rd=1.00:0.00 / mixed_ref=1 / me_range=32 / chroma_me=1 / trellis=2 / 8x8dct=1 / cqm=0 / deadzone=21,11 / fast_pskip=0 / chroma_qp_offset=-2 / threads=9 / lookahead_threads=2 / sliced_threads=0 / nr=0 / decimate=0 / interlaced=0 / bluray_compat=0 / constrained_intra=0 / bframes=16 / b_pyramid=2 / b_adapt=2 / b_bias=0 / direct=3 / weightb=1 / open_gop=0 / weightp=2 / keyint=240 / keyint_min=24 / scenecut=40 / intra_refresh=0 / rc_lookahead=120 / rc=2pass / mbtree=0 / bitrate=10050 / ratetol=1.0 / qcomp=0.70 / qpmin=0 / qpmax=69 / qpstep=4 / cplxblur=20.0 / qblur=0.5 / vbv_maxrate=50000 / vbv_bufsize=62500 / nal_hrd=none / filler=0 / ip_ratio=1.40 / pb_ratio=1.30 / aq=2:0.80
Язык : English
Default : Yes
Forced : No

Audio #1
Идентификатор : 2
Формат : AC-3
Формат/Информация : Audio Coding 3
Идентификатор кодека : A_AC3
Продолжительность : 1 h 39 min
Вид битрейта : Constant
Битрейт : 640 kb/s
Каналы : 6 channels
Расположение каналов : Front: L C R, Side: L R, LFE
Частота : 48.0 kHz
Частота кадров : 31.250 FPS (1536 SPF)
Битовая глубина : 16 bits
Метод сжатия : Lossy
Размер потока : 454 MiB (6%)
Язык : Russian
Default : Yes
Forced : No

Audio #2
Идентификатор : 3
Формат : AC-3
Формат/Информация : Audio Coding 3
Идентификатор кодека : A_AC3
Продолжительность : 1 h 39 min
Вид битрейта : Constant
Битрейт : 448 kb/s
Каналы : 6 channels
Расположение каналов : Front: L C R, Side: L R, LFE
Частота : 48.0 kHz
Частота кадров : 31.250 FPS (1536 SPF)
Битовая глубина : 16 bits
Метод сжатия : Lossy
Размер потока : 318 MiB (4%)
Язык : English
Default : No
Forced : No

Text #1
Идентификатор : 4
Формат : UTF-8
Идентификатор кодека : S_TEXT/UTF8
Идентификатор кодека/Информация : UTF-8 Plain Text
Продолжительность : 1 h 27 min
Битрейт : 72 b/s
ElementCount : 1043
Размер потока : 46.6 KiB (0%)
Заголовок : rusFull
Язык : Russian
Default : No
Forced : No

Text #2
Идентификатор : 5
Формат : UTF-8
Идентификатор кодека : S_TEXT/UTF8
Идентификатор кодека/Информация : UTF-8 Plain Text
Продолжительность : 1 h 36 min
Битрейт : 72 b/s
ElementCount : 1339
Размер потока : 51.4 KiB (0%)
Заголовок : rusSDH
Язык : Russian
Default : No
Forced : No

Text #3
Идентификатор : 6
Формат : UTF-8
Идентификатор кодека : S_TEXT/UTF8
Идентификатор кодека/Информация : UTF-8 Plain Text
Продолжительность : 1 h 27 min
Битрейт : 43 b/s
ElementCount : 1096
Размер потока : 27.7 KiB (0%)
Заголовок : engFull
Язык : English
Default : No
Forced : No

Text #4
Идентификатор : 7
Формат : UTF-8
Идентификатор кодека : S_TEXT/UTF8
Идентификатор кодека/Информация : UTF-8 Plain Text
Продолжительность : 1 h 36 min
Битрейт : 45 b/s
ElementCount : 1338
Размер потока : 32.4 KiB (0%)
Заголовок : engSDH
Язык : English
Default : No
Forced : No

Menu
00:00:00.000 : :Chapter 01
00:08:39.101 : :Chapter 02
00:16:47.089 : :Chapter 03
00:25:37.744 : :Chapter 04
00:34:20.892 : :Chapter 05
00:43:28.397 : :Chapter 06
00:48:31.992 : :Chapter 07
00:56:07.655 : :Chapter 08
00:59:09.546 : :Chapter 09
01:04:57.310 : :Chapter 10
01:11:49.722 : :Chapter 11
01:18:10.519 : :Chapter 12
01:22:04.002 : :Chapter 13
01:30:06.651 : :Chapter 14
01:39:14.073 : :Chapter 15





Скачать .torrent 7.72 ГБ


Download
Для скачивания .torrent файлов необходима регистрация
Сайт не распространяет и не хранит электронные версии произведений, а лишь предоставляет доступ к создаваемому пользователями каталогу ссылок на торрент-файлы, которые содержат только списки хеш-сумм

Страница 1 из 1

Ответить на тему

   Похожие торренты   Торрент 




cron