Регистрация ·  Логин: Пароль: Запомнить   · Забыли пароль?



Торрент трекер atorrent.space.
Скачать торрент Удивительный мир Марвена / Welcome to Marwen (2018) BDRip 1080p от ExKinoRay | HDRezka Studio, размером 8.7 ГБ



Ответить на тему
Статистика раздачи
Размер: 8.7 ГБ | Зарегистрирован: 10 апр 2019, 05:15 | .torrent скачан: 1666 раз(а)
Сидеров: [ 234  | 0 байт/сек ]   Личеров: [ 38  | 0 байт/сек ]   DHT: [ 234 / 38 ]
Автор Сообщение

Модератор видео

Стаж: 7 месяцев 22 дня
Сообщения: 1161
Россия

Сообщение 10 апр 2019, 05:15 

[Цитировать]


Название: Удивительный мир Марвена
Оригинальное название: Welcome to Marwen
Год выпуска: 2018
Жанр: Фэнтези, драма, комедия, биография
Режиссер: Роберт Земекис
В ролях: Стив Карелл, Фальк Хеншел, Мэтт О`Лири, Николай Вич, Патрик Роккас, Александр Лоу, Эйса Гонсалес, Лесли Земекис, Мерритт Уивер, Гвендолин Кристи

Описание: История о жертве уличного нападения Марке Хоганкэмпе, который оправлялся от психологической травмы с помощью «кукольной» терапии. Во дворе своего дома он выстроил игрушечный город времён Второй мировой войны и населил его фигурками, похожими на реальных людей из своего прошлого.



Выпущено: США, Canadian Film or Video Production Tax Credit (CPTC), DreamWorks, ImageMovers
Продолжительность: 01:55:56
Перевод: Профессиональный (многоголосый, закадровый) | HDRezka Studio
Субтитры: Английские
БЕЗ КАКОЙ-ЛИБО РЕКЛАМЫ!

Формат: MKV
Качество: BDRip 1080p (Welcome.to.Marwen.2018.1080p.BluRay.x264.DTS-MT)
Видео: MPEG-4 AVC, 1920x804 (16:9), 23.976 fps, 8769 Kbps, 0.237 bit/pixel
Аудио 1: 48 kHz, AC3, 2.0, 256 Kbps | MVO | RUS |
Аудио 2: 48 kHz, DTS, 5.1, 1510 Kbps | Оригинал | ENG |
General
Unique ID : 249497792622766966285503701001501908935 (0xBBB386E89FE8A600803EE4BF3B9B9FC7)
Complete name : F:Welcome.to.Marwen.2018.MVO.1080p.BDRip.ExKinoRay.mkv
Format : Matroska
Format version : Version 2
File size : 8.70 GiB
Duration : 1 h 55 min
Overall bit rate : 10.7 Mb/s
Movie name : Welcome to Marwen 2018 from ExKinoRay
Encoded date : UTC 2019-04-09 01:15:01
Writing application : mkvmerge v5.6.0 ('Kenya Kane') built on May 27 2012 16:44:04
Writing library : libebml v1.2.3 + libmatroska v1.3.0

Video
ID : 1
Format : AVC
Format/Info : Advanced Video Codec
Format profile : [email protected]
Format settings, CABAC : Yes
Format settings, ReFrames : 5 frames
Codec ID : V_MPEG4/ISO/AVC
Duration : 1 h 55 min
Bit rate : 8 769 kb/s
Width : 1 920 pixels
Height : 804 pixels
Display aspect ratio : 2.40:1
Frame rate mode : Constant
Frame rate : 23.976 (24000/1001) FPS
Color space : YUV
Chroma subsampling : 4:2:0
Bit depth : 8 bits
Scan type : Progressive
Bits/(Pixel*Frame) : 0.237
Stream size : 7.10 GiB (82%)
Title : From MTeam
Writing library : x264 core 157 r2938 2b00a84 [email protected] Mod
Encoding settings : cabac=1 / ref=5 / deblock=1:-3:-3 / analyse=0x3:0x133 / me=umh / subme=10 / psy=1 / psy_rd=1.05:0.00 / mixed_ref=1 / me_range=32 / chroma_me=1 / trellis=2 / 8x8dct=1 / cqm=0 / deadzone=21,11 / fast_pskip=0 / chroma_qp_offset=-2 / threads=12 / lookahead_threads=2 / sliced_threads=0 / nr=0 / decimate=0 / interlaced=0 / bluray_compat=0 / constrained_intra=0 / bframes=8 / b_pyramid=2 / b_adapt=2 / b_bias=0 / direct=3 / weightb=1 / open_gop=0 / weightp=2 / keyint=250 / keyint_min=24 / scenecut=40 / intra_refresh=0 / rc_lookahead=250 / rc=crf / mbtree=0 / crf=16.8 / qcomp=0.60 / qpmin=0 / qpmax=69 / qpstep=4 / vbv_maxrate=62500 / vbv_bufsize=78125 / crf_max=0.0 / nal_hrd=none / filler=0 / ip_ratio=1.30 / pb_ratio=1.20 / aq=3:0.80
Language : English
Default : Yes
Forced : No
Color range : Limited
Color primaries : BT.709
Matrix coefficients : BT.709

Audio #1
ID : 2
Format : AC-3
Format/Info : Audio Coding 3
Mode extension : CM (complete main)
Format settings, Endianness : Big
Codec ID : A_AC3
Duration : 1 h 55 min
Bit rate mode : Constant
Bit rate : 256 kb/s
Channel(s) : 2 channels
Channel positions : Front: L R
Sampling rate : 48.0 kHz
Frame rate : 31.250 FPS (1536 spf)
Compression mode : Lossy
Stream size : 212 MiB (2%)
Title : MVO (HDrezka Studio)
Language : Russian
Default : No
Forced : No

Audio #2
ID : 3
Format : DTS
Format/Info : Digital Theater Systems
Mode : 16
Format settings, Endianness : Big
Codec ID : A_DTS
Duration : 1 h 55 min
Bit rate mode : Constant
Bit rate : 1 509 kb/s
Channel(s) : 6 channels
Channel positions : Front: L C R, Side: L R, LFE
Sampling rate : 48.0 kHz
Frame rate : 93.750 FPS (512 spf)
Bit depth : 24 bits
Compression mode : Lossy
Stream size : 1.22 GiB (14%)
Language : English
Default : No
Forced : No

Text #1
ID : 4
Format : UTF-8
Codec ID : S_TEXT/UTF8
Codec ID/Info : UTF-8 Plain Text
Title : Forced
Language : English
Default : No
Forced : No

Text #2
ID : 5
Format : UTF-8
Codec ID : S_TEXT/UTF8
Codec ID/Info : UTF-8 Plain Text
Title : SDH
Language : English
Default : No
Forced : No

Menu
00:00:00.000 : en:Chapter 01
00:04:17.257 : en:Chapter 02
00:10:57.448 : en:Chapter 03
00:16:42.877 : en:Chapter 04
00:22:26.971 : en:Chapter 05
00:27:34.820 : en:Chapter 06
00:35:10.775 : en:Chapter 07
00:41:09.217 : en:Chapter 08
00:45:59.256 : en:Chapter 09
00:51:35.634 : en:Chapter 10
01:00:35.924 : en:Chapter 11
01:03:30.974 : en:Chapter 12
01:08:07.250 : en:Chapter 13
01:13:38.706 : en:Chapter 14
01:17:14.713 : en:Chapter 15
01:25:13.525 : en:Chapter 16
01:30:48.485 : en:Chapter 17
01:39:34.719 : en:Chapter 18
01:43:31.372 : en:Chapter 19
01:48:50.232 : en:Chapter 20




Релиз от:


Автор релиза:


Скачать .torrent 8.7 ГБ


Download
Для скачивания .torrent файлов необходима регистрация
Сайт не распространяет и не хранит электронные версии произведений, а лишь предоставляет доступ к создаваемому пользователями каталогу ссылок на торрент-файлы, которые содержат только списки хеш-сумм

Страница 1 из 1

Ответить на тему

   Похожие торренты   Торрент