Регистрация ·  Логин: Пароль: Запомнить   · Забыли пароль?



Торрент трекер atorrent.space.
Скачать торрент Ужастики 2: Беспокойный Хэллоуин / Goosebumps 2: Haunted Halloween (2018) DVD9 | Лицензия, размером 5.17 ГБ



Ответить на тему
Статистика раздачи
Размер: 5.17 ГБ | Зарегистрирован: 10 апр 2019, 10:49 | .torrent скачан: 43 раз(а)
Сидеров: [ 9  | 0 байт/сек ]   Личеров: [ 5  | 0 байт/сек ]   DHT: [ 9 / 5 ]
Автор Сообщение

Модератор видео
Аватара пользователя

Стаж: 7 месяцев 19 дней
Сообщения: 507
Россия

Сообщение 10 апр 2019, 10:49 

[Цитировать]


Название: Ужастики 2: Беспокойный Хэллоуин
Оригинальное название: Goosebumps 2: Haunted Halloween
Год выхода: 2018
Жанр: фэнтези, комедия, приключения, семейный
Режиссер: Эри Сандел
В ролях: Мэдисон Айсмен, Джереми Рэй Тейлор, Калил Харрис, Мик Вингерт, Кен Жонг, Венди МакЛендон-Кови, Крис Парнелл, Брайс Касс, Пейтон Уич, Шэри Хидли

О фильме:
В заброшенном доме парочка ребят находит странную книгу «Беспокойный Хэллоуин» Р. Л. Стайна. Друзья быстро понимают, почему книгу спрятали подальше от всех, когда небольшой городок заполняют монстры разной степени ужасности.



Страна: Великобритания, США
Студия: Columbia Pictures Corporation, Original Film, Scholastic Entertainment, Silvertongue Films, Sony Pictures Animation
Продолжительность: 86 мин. / 01:26
Перевод: профессиональный (дублированный) лицензия

Файл
Кодек: MPEG2
Качество: DVD9 R5
Видео: PAL 16:9 ([email protected]) VBR 4514 Kbps, 25.000 fps
Аудио 1: Dolby AC3, 6 ch, 48.0 KHz, 384 Kbps (русский)
Аудио 2: Dolby AC3, 6 ch, 48.0 KHz, 384 Kbps (английский)
Аудио 3: Dolby AC3, 6 ch, 48.0 KHz, 384 Kbps (испанский)
Субтитры: русские, английские, датские, норвежские, финские, испанские, шведские
Формат : MPEG-PS
Размер файла : 1024 Мбайт
Продолжительность : 24 м. 45 с.
Режим общего битрейта : Переменный
Общий поток : 5781 Кбит/сек

Видео
Идентификатор : 224 (0xE0)
Формат : MPEG Video
Версия формата : Version 2
Профиль формата : [email protected]
Настройки формата : CustomMatrix / BVOP
Параметр BVOP формата : Да
Параметр матрицы формата : Выборочная
Параметр GOP формата : Variable
Продолжительность : 24 м. 45 с.
Вид битрейта : Переменный
Битрейт : 4514 Кбит/сек
Максимальный битрейт : 7000 Кбит/сек
Ширина : 720 пикселей
Высота : 576 пикселей
Соотношение сторон : 16:9
Частота кадров : 25,000 кадров/сек
Стандарт вещания : PAL
Цветовое пространство : YUV
Субдискретизация насыщенности : 4:2:0
Битовая глубина : 8 бит
Тип развёртки : Прогрессивная
Порядок развёртки : Нижнее поле первое
Метод сжатия : С потерями
Бит/(Пиксели*Кадры) : 0.435
Временной код первого кадра : 00:59:58:00
Оригинал временного кода : Group of pictures header
GOP, открыто/закрыто : Открыто
GOP, открыто/закрыто на первом кадре : Закрыто
Размер потока : 799 Мбайт (78%)

Аудио #1
Идентификатор : 189 (0xBD)-128 (0x80)
Формат : AC-3
Формат/Информация : Audio Coding 3
Режим смешивания : DVD-Video
Продолжительность : 24 м. 45 с.
Вид битрейта : Постоянный
Битрейт : 384 Кбит/сек
Каналы : 6 каналов
Расположение каналов : Front: L C R, Side: L R, LFE
Частота : 48,0 КГц
Частота кадров : 31,250 кадров/сек (1536 SPF)
Битовая глубина : 16 бит
Метод сжатия : С потерями
Размер потока : 68,0 Мбайт (7%)

Аудио #2
Идентификатор : 189 (0xBD)-129 (0x81)
Формат : AC-3
Формат/Информация : Audio Coding 3
Режим смешивания : DVD-Video
Продолжительность : 24 м. 45 с.
Вид битрейта : Постоянный
Битрейт : 384 Кбит/сек
Каналы : 6 каналов
Расположение каналов : Front: L C R, Side: L R, LFE
Частота : 48,0 КГц
Частота кадров : 31,250 кадров/сек (1536 SPF)
Битовая глубина : 16 бит
Метод сжатия : С потерями
Размер потока : 68,0 Мбайт (7%)

Аудио #3
Идентификатор : 189 (0xBD)-130 (0x82)
Формат : AC-3
Формат/Информация : Audio Coding 3
Режим смешивания : DVD-Video
Продолжительность : 24 м. 45 с.
Вид битрейта : Постоянный
Битрейт : 384 Кбит/сек
Каналы : 6 каналов
Расположение каналов : Front: L C R, Side: L R, LFE
Частота : 48,0 КГц
Частота кадров : 31,250 кадров/сек (1536 SPF)
Битовая глубина : 16 бит
Метод сжатия : С потерями
Размер потока : 68,0 Мбайт (7%)

Текст #1
Идентификатор : 189 (0xBD)-32 (0x20)
Формат : RLE
Формат/Информация : Run-length encoding
Режим смешивания : DVD-Video

Текст #2
Идентификатор : 189 (0xBD)-33 (0x21)
Формат : RLE
Формат/Информация : Run-length encoding
Режим смешивания : DVD-Video

Текст #3
Идентификатор : 189 (0xBD)-34 (0x22)
Формат : RLE
Формат/Информация : Run-length encoding
Режим смешивания : DVD-Video

Текст #4
Идентификатор : 189 (0xBD)-35 (0x23)
Формат : RLE
Формат/Информация : Run-length encoding
Режим смешивания : DVD-Video

Текст #5
Идентификатор : 189 (0xBD)-36 (0x24)
Формат : RLE
Формат/Информация : Run-length encoding
Режим смешивания : DVD-Video

Текст #6
Идентификатор : 189 (0xBD)-37 (0x25)
Формат : RLE
Формат/Информация : Run-length encoding
Режим смешивания : DVD-Video

Текст #7
Идентификатор : 189 (0xBD)-38 (0x26)
Формат : RLE
Формат/Информация : Run-length encoding
Режим смешивания : DVD-Video

Меню



Скачать .torrent 5.17 ГБ


Download
Для скачивания .torrent файлов необходима регистрация
Сайт не распространяет и не хранит электронные версии произведений, а лишь предоставляет доступ к создаваемому пользователями каталогу ссылок на торрент-файлы, которые содержат только списки хеш-сумм

Страница 1 из 1

Ответить на тему

   Похожие торренты   Торрент 




cron