Регистрация ·  Логин: Пароль: Запомнить   · Забыли пароль?



Торрент трекер atorrent.space.
Скачать торрент Закатать в асфальт / Dragged Across Concrete (2018) WEBRip | Sub, размером 1.46 ГБ



Ответить на тему
Статистика раздачи
Размер: 1.46 ГБ | Зарегистрирован: 10 апр 2019, 10:52 | .torrent скачан: 1360 раз(а)
Сидеров: [ 210  | 0 байт/сек ]   Личеров: [ 7  | 0 байт/сек ]   DHT: [ 210 / 7 ]
Автор Сообщение

Модератор видео
Аватара пользователя

Стаж: 7 месяцев 20 дней
Сообщения: 507
Россия

Сообщение 10 апр 2019, 10:52 

[Цитировать]



Страна: США Канада
Производство: Assemble Media, Cinestate, Metrol Technology, Realmbuilders Productions, thefyzz, Unified Pictures
Год выпуска: 2018
Жанр: боевик, триллер, драма, криминал
Продолжительность: 02:38:30

Режиссер: С. Крэйг Залер
Автор сценария: С. Крэйг Залер
В ролях: Мэл Гибсон, Винс Вон, Тори Киттлз, Дженнифер Карпентер, Лори Холден, Лианнет Боррего, Майкл Джей Уайт, Джастин Уоррингтон

Описание: Старого ищейку Риджмана и безбашенного Энтони отстраняют от дел после того, как в сеть попадает видео, где напарники жестко выбивают признание из подозреваемого. Не имея других средств к существованию, экс-копы находят работу в криминальном подполье...



Перевод: отсутствует | субтитры
Субтитры: отдельными файлами / русские, английские
Качество: WEBRip
Формат: AVI
Видео кодек: XviD
Аудио кодек: МР3
Видео: 720x304 (2.35:1), 23.976 fps, XviD build 67 ~1 181 kbps avg
Аудио: 48 kHz, MPEG Layer 3, 2 ch, ~128.00 kbps avg | ENG
Формат субтитров: *SRT

Дата премьеры (мир): 3 сентября 2018
Дата премьеры (РФ): 21 марта 2019, «Парадиз»



Релиз от: Dalemake
General
Полное имя : Zakatat`_v_asfalt_2018_WEB-DLRip_Sub_by_Dalemake.avi
ормат : AVI
Формат/Информация : Audio Video Interleave
Размер файла : 1,46 Гбайт
Продолжительность : 2 ч. 38 м.
Общий поток : 1318 Кбит/сек
Программа кодирования : VirtualDubMod 1.5.10.3 | (build 2550/release)
Библиотека кодирования : VirtualDubMod build 2550/release

Видео
Идентификатор : 0
Формат : MPEG-4 Visual
Профиль формата : Advanced [email protected]
Параметр BVOP формата : 1
Параметр QPel формата : Нет
Параметр GMC формата : Без точки перехода
Параметр матрицы формата : Выборочная
Идентификатор кодека : XVID
Идентификатор кодека/Подсказка : XviD
Продолжительность : 2 ч. 38 м.
Битрейт : 1181 Кбит/сек
Ширина : 720 пикселей
Высота : 304 пикселя
Соотношение сторон : 2,35:1
Частота кадров : 23,976 кадра/сек
Цветовое пространство : YUV
Субдискретизация насыщенности : 4:2:0
Битовая глубина : 8 бит
Тип развёртки : Прогрессивная
Метод сжатия : С потерями
Бит/(Пиксели*Кадры) : 0.225
Размер потока : 1,31 Гбайт (90%)
Библиотека кодирования : XviD 67

Аудио
Идентификатор : 1
Формат : MPEG Audio
Версия формата : Version 1
Профиль формата : Layer 3
Идентификатор кодека : 55
Идентификатор кодека/Подсказка : MP3
Продолжительность : 2 ч. 38 м.
Вид битрейта : Постоянный
Битрейт : 128 Кбит/сек
Каналы : 2 канала
Частота : 48,0 КГц
Метод сжатия : С потерями
Размер потока : 145 Мбайт (10%)
Выравнивание : Соединение по промежуткам
Продолжительность промежутка : 42 мс. (1,00 видеокадр)
Время предзагрузки промежутка : 504 мс.
Библиотека кодирования : LAME3.99r
Настройки программы : -m s -V 4 -q 2 -lowpass 17 -b 128


Скачать .torrent 1.46 ГБ


Download
Для скачивания .torrent файлов необходима регистрация
Сайт не распространяет и не хранит электронные версии произведений, а лишь предоставляет доступ к создаваемому пользователями каталогу ссылок на торрент-файлы, которые содержат только списки хеш-сумм

Страница 1 из 1

Ответить на тему

   Похожие торренты   Торрент