Регистрация ·  Логин: Пароль: Запомнить   · Забыли пароль?



Торрент трекер atorrent.space.
Скачать торрент Халк / Hulk (2003) BDRip 720р от SuperMin | D, размером 4.37 ГБ



Ответить на тему
Статистика раздачи
Размер: 4.37 ГБ | Зарегистрирован: 10 апр 2019, 11:59 | .torrent скачан: 13 раз(а)
Сидеров: [ 24  | 0 байт/сек ]   Личеров: [ 1  | 0 байт/сек ]   DHT: [ 24 / 1 ]
Автор Сообщение

Модератор видео
Аватара пользователя

Стаж: 7 месяцев 19 дней
Сообщения: 507
Россия

Сообщение 10 апр 2019, 11:59 

[Цитировать]



Название: Халк
Оригинальное название: Hulk
Год выхода: 2003
Жанр: Фантастика, боевик
Режиссер: Энг Ли
В ролях: Эрик Бана, Дженнифер Коннелли, Сэм Эллиотт, Джош Лукас, Ник Нолти, Кара Буоно, Кевин Ранкин, Селия Уэстон

О фильме:
Студентов из престижного университета набирают в рабочую группу секретного военного проекта по созданию машины, способной перестраивать клетки человеческого организма. Лидером группы является Брюс Бэннер. Неожиданно проект "Гаммасфера" выходит из под контроля ученых, и Брюс Бэннер подвергается воздействию этого аппарата. В результате он получает невиданную возможность превращаться в огромного зеленого монстра всякий раз, как только что-то начинает его злить. Это существо вскоре начинают называть Халком. Хотя Халк - это темная сторона души Брюса, он находит в себе силы поставить ее на службу праведным целям.



Страна: США
Студия: Good Machine, Marvel Enterprises, Universal Pictures, Valhalla Motion Pictures
Продолжительность: 02:18:13
Перевод: Дублированный

Файл
Кодек: H.264
Качество: BDRip 720р от SuperMin
Видео: 1280x696 (1.85:1), 4079 kbps, 23.976 fps
Звук: Русский (AC-3, 6ch, 448 kbps)
Субтитры: Русские, английские
x264 [info]: frame I:1257 Avg QP:16.72 size: 96490
x264 [info]: frame P:46426 Avg QP:19.56 size: 37408
x264 [info]: frame B:151156 Avg QP:21.20 size: 15676
x264 [info]: consecutive B-frames: 3.5% 5.0% 7.2% 18.4% 13.5% 40.3% 6.5% 3.6% 2.1%
encoded 198839 frames, 2.42 fps, 4078.02 kb/s

Video
ID : 1
Format : AVC
Format/Info : Advanced Video Codec
Format profile : [email protected]
Format settings, CABAC : Yes
Format settings, ReFrames : 9 frames
Codec ID : V_MPEG4/ISO/AVC
Duration : 2h 18mn
Bit rate : 4 079 Kbps
Width : 1 280 pixels
Height : 696 pixels
Display aspect ratio : 1.85:1
Frame rate mode : Constant
Frame rate : 23.976 fps
Color space : YUV
Chroma subsampling : 4:2:0
Bit depth : 8 bits
Scan type : Progressive
Bits/(Pixel*Frame) : 0.191
Stream size : 3.85 GiB (88%)
Writing library : x264 core 146 r2538 121396c
Encoding settings : cabac=1 / ref=9 / deblock=1:-1:-1 / analyse=0x3:0x113 / me=umh / subme=11 / psy=1 / psy_rd=1.00:0.00 / mixed_ref=1 / me_range=32 / chroma_me=1 / trellis=2 / 8x8dct=1 / cqm=0 / deadzone=21,11 / fast_pskip=0 / chroma_qp_offset=-2 / threads=4 / lookahead_threads=1 / sliced_threads=0 / nr=0 / decimate=1 / interlaced=0 / bluray_compat=0 / constrained_intra=0 / bframes=8 / b_pyramid=2 / b_adapt=2 / b_bias=0 / direct=3 / weightb=1 / open_gop=0 / weightp=2 / keyint=240 / keyint_min=22 / scenecut=40 / intra_refresh=0 / rc_lookahead=40 / rc=2pass / mbtree=0 / bitrate=4079 / ratetol=1.0 / qcomp=0.60 / qpmin=0 / qpmax=69 / qpstep=4 / cplxblur=20.0 / qblur=0.5 / vbv_maxrate=62500 / vbv_bufsize=78125 / nal_hrd=none / filler=0 / ip_ratio=1.40 / pb_ratio=1.30 / aq=1:1.00
Default : Yes
Forced : No
DURATION : 02:18:13.312000000
NUMBER_OF_FRAMES : 259166
NUMBER_OF_BYTES : 464425472
_STATISTICS_WRITING_APP : mkvmerge v7.8.0 ('River Man') 64bit built on Mar 27 2015 16:31:37
_STATISTICS_WRITING_DATE_UT : 2015-10-24 14:53:18
_STATISTICS_TAGS : BPS DURATION NUMBER_OF_FRAMES NUMBER_OF_BYTES

Audio
ID : 2
Format : AC-3
Format/Info : Audio Coding 3
Mode extension : CM (complete main)
Format settings, Endianness : Big
Codec ID : A_AC3
Duration : 2h 18mn
Bit rate mode : Constant
Bit rate : 448 Kbps
Channel(s) : 6 channels
Channel positions : Front: L C R, Side: L R, LFE
Sampling rate : 48.0 KHz
Compression mode : Lossy
Delay relative to video : 27ms
Stream size : 443 MiB (10%)
Title : Дубляж
Language : Russian
Default : Yes
Forced : No

Text #1
ID : 3
Format : UTF-8
Codec ID : S_TEXT/UTF8
Codec ID/Info : UTF-8 Plain Text
Title : Надписи
Language : Russian
Default : No
Forced : No

Text #2
ID : 4
Format : UTF-8
Codec ID : S_TEXT/UTF8
Codec ID/Info : UTF-8 Plain Text
Title : Full
Language : Russian
Default : Yes
Forced : No

Text #3
ID : 5
Format : UTF-8
Codec ID : S_TEXT/UTF8
Codec ID/Info : UTF-8 Plain Text
Language : English
Default : No
Forced : No




Скачать .torrent 4.37 ГБ


Download
Для скачивания .torrent файлов необходима регистрация
Сайт не распространяет и не хранит электронные версии произведений, а лишь предоставляет доступ к создаваемому пользователями каталогу ссылок на торрент-файлы, которые содержат только списки хеш-сумм

Страница 1 из 1

Ответить на тему

   Похожие торренты   Торрент