Регистрация ·  Логин: Пароль: Запомнить   · Забыли пароль?



Торрент трекер atorrent.space.
Скачать торрент Перевозчик 2 / Transporter 2 (2005) BDRip 1080p | Extended Director's Cut | D, A, размером 10.38 ГБ



Ответить на тему
Статистика раздачи
Размер: 10.38 ГБ | Зарегистрирован: 10 апр 2019, 13:27 | .torrent скачан: 25 раз(а)
Сидеров: [ 6  | 0 байт/сек ]   Личеров: [ 24  | 0 байт/сек ]   DHT: [ 6 / 24 ]
Автор Сообщение

Модератор видео
Аватара пользователя

Стаж: 7 месяцев 20 дней
Сообщения: 507
Россия

Сообщение 10 апр 2019, 13:27 

[Цитировать]


Название: Перевозчик 2
Оригинальное название: Transporter 2
Год выхода: 2005

Страна: Франция, США
Студия: EuropaCorp, TF1 Films Production, Current Entertainment
Продолжительность: 01:34:11
Жанр: боевик, триллер, криминал

Режиссер: Луи Летерье
В ролях: Джейсон Стэйтем, Алессандро Гассман, Эмбер Валлетта, Кейт Наута, Мэттью Модайн, Джейсон Флеминг, Кит Дэвид, Хантер Клэри, Шеннон Бриггс, Франсуа Берлеан, ...

Перевод:
- Профессиональный (дублированный) Мосфильм-Мастер
- Авторский (одноголосый, закадровый) Рудой Евгений

О фильме: Бывший сотрудник спецподразделения Фрэнк Мартин, известный также как Перевозчик, уходит от дел и поселяется в Майами, где устраивается шофером в богатую семью. С маленьким сыном этого семейства у него завязываются дружеские отношения.
Когда же мальчика похищают, Мартину приходится использовать свои профессиональные навыки, чтобы вернуть парнишку в целости и сохранности, а также раскрыть зловещий план похитителя…



Кодек: x264
Качество: BDRip 1080p
Видео: 1920x816, 13000 kbps, 24 fps
Аудио #1: AC-3, 6 ch, 640 kbps (Rus) - Dub Невафильм (вставки Чадова)
Аудио #2: AC-3, 6 ch, 640 kbps (Rus) - AVO Чадов Михаил
Аудио #3: DTS, 6 ch, 1059 kbps (Eng)
Субтитры: нет

За исходник спасибо TeamHD и djamb
- Дубляж был сделан krat11 из оригинальной DTS-HD MA или TrueHD дорожки и дублированной лицензионной дорожки путём замены всех участков с английской речью, отголосками и эхом на аналогичные с дублированной дорожки во всех каналах.
Родной оригинал был 16-ти битный и по качеству не очень. Для работы был использован оригинал из BD EUR 24 бит переведен в 24fps, а на расширенные места был использован родной оригинал.
- Дорога М.Чадова доступна благодаря проекту "Копилка". Спонсоры: stimco, fess_master, n1ko1as, Shamik, BERILL, goriathid, mishka, Romanych_777, Shrek1.
- Сборка дорог - djamb.

x264 [info]: frame I:984 Avg QP:16.42 size:195766
x264 [info]: frame P:38247 Avg QP:19.28 size: 99860
x264 [info]: frame B:96404 Avg QP:21.14 size: 53566
x264 [info]: consecutive B-frames: 5.6% 8.5% 9.6% 35.8% 9.9% 26.7% 1.6% 1.6% 0.2% 0.1% 0.0% 0.1% 0.0% 0.0% 0.1%

Общее
Уникальный идентификатор : 222285911352248251178879137679581953216 (0xA73AB593F494B7798327858A2E8CBCC0)
Полное имя : Перевозчик 2 (Transporter 2) 2005 BDRip 1080p.mkv
Формат : Matroska
Версия формата : Version 2
Размер файла : 10,4 Гбайт
Продолжительность : 1 ч. 34 м.
Общий поток : 15,8 Мбит/сек
Дата кодирования : UTC 2019-04-10 05:04:29
Программа кодирования : mkvmerge v4.0.0 ('The Stars were mine') сборка от Jun 6 2010 16:18:42
Библиотека кодирования : libebml v1.0.0 + libmatroska v1.0.0

Видео
Идентификатор : 1
Формат : AVC
Формат/Информация : Advanced Video Codec
Профиль формата : [email protected]
Параметр CABAC формата : Да
Параметр ReFrames формата : 5 кадров
Идентификатор кодека : V_MPEG4/ISO/AVC
Продолжительность : 1 ч. 34 м.
Битрейт : 13,0 Мбит/сек
Ширина : 1920 пикселей
Высота : 816 пикселей
Соотношение сторон : 2,35:1
Режим частоты кадров : Постоянный
Частота кадров : 24,000 кадра/сек
Цветовое пространство : YUV
Субдискретизация насыщенности : 4:2:0
Битовая глубина : 8 бит
Тип развёртки : Прогрессивная
Бит/(Пиксели*Кадры) : 0.346
Размер потока : 8,34 Гбайт (80%)
Библиотека кодирования : x264 core 146 r2538 121396c
Настройки программы : cabac=1 / ref=5 / deblock=1:-2:-2 / analyse=0x3:0x133 / me=umh / subme=11 / psy=1 / psy_rd=1.00:0.00 / mixed_ref=1 / me_range=32 / chroma_me=1 / trellis=2 / 8x8dct=1 / cqm=0 / deadzone=21,11 / fast_pskip=0 / chroma_qp_offset=-2 / threads=12 / lookahead_threads=2 / sliced_threads=0 / nr=0 / decimate=0 / interlaced=0 / bluray_compat=0 / constrained_intra=0 / bframes=14 / b_pyramid=2 / b_adapt=2 / b_bias=0 / direct=3 / weightb=1 / open_gop=0 / weightp=2 / keyint=240 / keyint_min=24 / scenecut=40 / intra_refresh=0 / rc=2pass / mbtree=0 / bitrate=13000 / ratetol=1.0 / qcomp=0.60 / qpmin=0 / qpmax=69 / qpstep=4 / cplxblur=20.0 / qblur=0.5 / ip_ratio=1.40 / pb_ratio=1.30 / aq=3:0.80
Язык : English
Default : Нет
Forced : Нет

Аудио #1
Идентификатор : 2
Формат : AC-3
Формат/Информация : Audio Coding 3
Расширение режима : CM (complete main)
Параметр Endianness формата : Big
Идентификатор кодека : A_AC3
Продолжительность : 1 ч. 34 м.
Вид битрейта : Постоянный
Битрейт : 640 Кбит/сек
Каналы : 6 каналов
Расположение каналов : Front: L C R, Side: L R, LFE
Частота : 48,0 КГц
Частота кадров : 31,250 кадров/сек (1536 spf)
Метод сжатия : С потерями
Размер потока : 431 Мбайт (4%)
Заголовок : Dub Невафильм (вставки Чадова)
Язык : Russian
Default : Нет
Forced : Нет

Аудио #2
Идентификатор : 3
Формат : AC-3
Формат/Информация : Audio Coding 3
Расширение режима : CM (complete main)
Параметр Endianness формата : Big
Идентификатор кодека : A_AC3
Продолжительность : 1 ч. 34 м.
Вид битрейта : Постоянный
Битрейт : 640 Кбит/сек
Каналы : 6 каналов
Расположение каналов : Front: L C R, Side: L R, LFE
Частота : 48,0 КГц
Частота кадров : 31,250 кадров/сек (1536 spf)
Метод сжатия : С потерями
Размер потока : 431 Мбайт (4%)
Заголовок : AVO Чадов Михаил
Язык : Russian
Default : Нет
Forced : Нет

Аудио #3
Идентификатор : 4
Формат : DTS
Формат/Информация : Digital Theater Systems
Режим : 16
Параметр Endianness формата : Big
Идентификатор кодека : A_DTS
Продолжительность : 1 ч. 34 м.
Вид битрейта : Постоянный
Битрейт : 1509 Кбит/сек
Каналы : 6 каналов
Расположение каналов : Front: L C R, Side: L R, LFE
Частота : 48,0 КГц
Частота кадров : 93,750 кадра/сек (512 spf)
Битовая глубина : 24 бит
Метод сжатия : С потерями
Размер потока : 1017 Мбайт (10%)
Язык : English
Default : Нет
Forced : Нет





Скачать .torrent 10.38 ГБ


Download
Для скачивания .torrent файлов необходима регистрация
Сайт не распространяет и не хранит электронные версии произведений, а лишь предоставляет доступ к создаваемому пользователями каталогу ссылок на торрент-файлы, которые содержат только списки хеш-сумм

Страница 1 из 1

Ответить на тему

   Похожие торренты   Торрент 




cron