Регистрация ·  Логин: Пароль: Запомнить   · Забыли пароль?



Торрент трекер atorrent.space.
Скачать торрент Мэри Поппинс возвращается / Mary Poppins Returns (2018) BDRip 2160p | 4K | HDR | D, P | iTunes, размером 17.52 ГБ



Ответить на тему
Статистика раздачи
Размер: 17.52 ГБ | Зарегистрирован: 11 апр 2019, 10:21 | .torrent скачан: 0 раз(а)
Сидеров: [ 0  | 0 байт/сек ]   Личеров: [ 0  | 0 байт/сек ]   DHT: [ 0 / 0 ]
Автор Сообщение

Модератор видео
Аватара пользователя

Стаж: 7 месяцев 19 дней
Сообщения: 507
Россия

Сообщение 11 апр 2019, 10:21 

[Цитировать]



Год выпуска: 2018
Жанр: Мюзикл, фэнтези, комедия, семейный
Страна: США, Lucamar Productions, Marc Platt Productions, Walt Disney Pictures
Режиссёр: Роб Маршалл
Субтитры: Русские, английские
Продолжительность: 02:10:29

В ролях: Эмили Блант, Лин-Мануэль Миранда, Бен Уишоу, Эмили Мортимер, Пикси Дейвис, Натаниэль Сале, Джоэль Доусон, Джули Уолтерс, Мэрил Стрип, Колин Фёрт

Описание: Фильм рассказывает о новых приключениях Мэри и ее друга Джека, которым предстоит встретиться с представителями следующего поколения семейства Бэнкс.


Файл
Качество: BDRip (2160p)
Формат: MKV
Видео: HEVC, 13.2 Мбит/с, 3840x1608, 23.976 кадр/с, 10 бит
Аудио 1: Русский (AC3 6 ch, 384 Кбит/с) / Дублированный [iTunes]
Аудио 2: Русский (AC3, 2 ch, 192 Кбит/с) / Профессиональный многоголосый [HDRezka Studio]
Аудио 3: Украинский (AC3 6 ch, 448 Кбит/с) / Дублированный [студия LeDoyen]
Аудио 4: Aнглийский (TrueHD, 8 ch, 4253 Кбит/с) / Оригинал
Аудио 5: Aнглийский (AC3 6 ch, 640 Кбит/с) / Оригинал

Общее
Уникальный идентификатор : 232550560247617952606021936658319565610 (0xAEF39BD77726629CA38E7645496A632A)
Полное имя : D:Передел_2Mary.Poppins.Returns.2018.BDRip.x265.HDR.10bit.Master5.mkv
Формат : Matroska
Версия формата : Version 4
Размер файла : 17,5 Гбайт
Продолжительность : 2 ч. 10 м.
Режим общего битрейта : Переменный
Общий поток : 19,2 Мбит/сек
Название фильма : Mary.Poppins.Returns.2018.BDRip.x265.HDR.10bit.Master5
Дата кодирования : UTC 2019-04-05 19:47:15
Программа кодирования : mkvmerge v7.9.0 ('Birds') 64bit
Библиотека кодирования : libebml v1.3.1 + libmatroska v1.4.2
Обложка : Yes
Attachments : small_cover.jpg / small_cover_land.jpg / cover.jpg / cover_land.jpg

Видео
Идентификатор : 1
Формат : HEVC
Формат/Информация : High Efficiency Video Coding
Коммерческое название : HDR10
Профиль формата : Main [email protected]@High
Идентификатор кодека : V_MPEGH/ISO/HEVC
Продолжительность : 2 ч. 10 м.
Битрейт : 13,2 Мбит/сек
Ширина : 3840 пикселей
Высота : 1608 пикселей
Соотношение сторон : 2,40:1
Режим частоты кадров : Постоянный
Частота кадров : 23,976 (24000/1001) кадра/сек
Цветовое пространство : YUV
Субдискретизация насыщенности : 4:2:0 (Type 2)
Битовая глубина : 10 бит
Бит/(Пиксели*Кадры) : 0.089
Размер потока : 12,1 Гбайт (69%)
Заголовок : Mary.Poppins.Returns.2018.BDRip.x265.HDR.10bit.Master5
Библиотека кодирования : x265 3.0_Au+4-dcbec33bfb0f:[Windows][GCC 6.3.0][64 bit] 10bit
Настройки программы : cpuid=1111039 / frame-threads=4 / numa-pools=20 / wpp / no-pmode / no-pme / no-psnr / no-ssim / log-level=2 / input-csp=1 / input-res=3840x1608 / interlace=0 / total-frames=187713 / level-idc=51 / high-tier=1 / uhd-bd=0 / ref=4 / no-allow-non-conformance / repeat-headers / annexb / aud / hrd / info / hash=0 / no-temporal-layers / no-open-gop / min-keyint=1 / keyint=24 / gop-lookahead=0 / bframes=4 / b-adapt=2 / b-pyramid / bframe-bias=0 / rc-lookahead=25 / lookahead-slices=4 / scenecut=40 / radl=0 / no-splice / no-intra-refresh / ctu=64 / min-cu-size=8 / rect / no-amp / max-tu-size=32 / tu-inter-depth=1 / tu-intra-depth=1 / limit-tu=0 / rdoq-level=2 / dynamic-rd=0.00 / no-ssim-rd / signhide / no-tskip / nr-intra=0 / nr-inter=0 / no-constrained-intra / no-strong-intra-smoothing / max-merge=3 / limit-refs=3 / limit-modes / me=3 / subme=3 / merange=57 / temporal-mvp / weightp / no-weightb / no-analyze-src-pics / deblock=-3:-3 / no-sao / no-sao-non-deblock / rd=4 / no-early-skip / rskip / no-fast-intra / no-tskip-fast / no-cu-lossless / no-b-intra / no-splitrd-skip / rdpenalty=0 / psy-rd=2.00 / psy-rdoq=1.00 / no-rd-refine / no-lossless / cbqpoffs=0 / crqpoffs=0 / rc=crf / crf=17.0 / qcomp=0.60 / qpstep=4 / stats-write=0 / stats-read=0 / vbv-maxrate=160000 / vbv-bufsize=160000 / vbv-init=0.9 / crf-max=0.0 / crf-min=0.0 / ipratio=1.40 / pbratio=1.30 / aq-mode=2 / aq-strength=1.00 / cutree / zone-count=0 / no-strict-cbr / qg-size=32 / no-rc-grain / qpmax=69 / qpmin=0 / no-const-vbv / sar=1 / overscan=0 / videoformat=5 / range=0 / colorprim=9 / transfer=16 / colormatrix=9 / chromaloc=1 / chromaloc-top=2 / chromaloc-bottom=2 / display-window=0 / master-display=G(13250,34500)B(7500,3000)R(34000,16000)WP(15635,16450)L(10000000,1) / max-cll=0,0 / min-luma=0 / max-luma=1023 / log2-max-poc-lsb=8 / vui-timing-info / vui-hrd-info / slices=1 / no-opt-qp-pps / no-opt-ref-list-length-pps / no-multi-pass-opt-rps / scenecut-bias=0.05 / no-opt-cu-delta-qp / no-aq-motion / hdr / hdr-opt / no-dhdr10-opt / no-idr-recovery-sei / analysis-reuse-level=5 / scale-factor=0 / refine-intra=0 / refine-inter=0 / refine-mv=0 / refine-ctu-distortion=0 / no-limit-sao / ctu-info=0 / no-lowpass-dct / refine-analysis-type=0 / copy-pic=1 / max-ausize-factor=1.0 / no-dynamic-refine / no-single-sei / no-hevc-aq / qp-adaptation-range=1.00
Default : Да
Forced : Нет
Цветовой диапазон : Limited
Основные цвета : BT.2020
Характеристики трансфера : PQ
Коэффициенты матрицы : BT.2020 non-constant
MasteringDisplay_ColorPrimaries : Display P3
MasteringDisplay_Luminance : min: 0.0001 cd/m2, max: 1000 cd/m2

Аудио #1
Идентификатор : 2
Формат : AC-3
Формат/Информация : Audio Coding 3
Коммерческое название : Dolby Digital
Идентификатор кодека : A_AC3
Продолжительность : 2 ч. 10 м.
Вид битрейта : Постоянный
Битрейт : 384 Кбит/сек
Каналы : 6 каналов
Channel layout : L R C LFE Ls Rs
Частота : 48,0 КГц
Частота кадров : 31,250 кадров/сек (1536 SPF)
Битовая глубина : 16 бит
Метод сжатия : С потерями
Размер потока : 358 Мбайт (2%)
Заголовок : iTunes
Язык : Russian
ServiceKind : Complete Main
Default : Да
Forced : Да

Аудио #2
Идентификатор : 3
Формат : AC-3
Формат/Информация : Audio Coding 3
Коммерческое название : Dolby Digital
Идентификатор кодека : A_AC3
Продолжительность : 2 ч. 10 м.
Вид битрейта : Постоянный
Битрейт : 192 Кбит/сек
Каналы : 2 канала
Channel layout : L R
Частота : 48,0 КГц
Частота кадров : 31,250 кадров/сек (1536 SPF)
Битовая глубина : 16 бит
Метод сжатия : С потерями
Размер потока : 179 Мбайт (1%)
Заголовок : HDRezka Studio
Язык : Russian
ServiceKind : Complete Main
Default : Нет
Forced : Нет

Аудио #3
Идентификатор : 4
Формат : AC-3
Формат/Информация : Audio Coding 3
Коммерческое название : Dolby Digital
Идентификатор кодека : A_AC3
Продолжительность : 2 ч. 10 м.
Вид битрейта : Постоянный
Битрейт : 448 Кбит/сек
Каналы : 6 каналов
Channel layout : L R C LFE Ls Rs
Частота : 48,0 КГц
Частота кадров : 31,250 кадров/сек (1536 SPF)
Битовая глубина : 16 бит
Метод сжатия : С потерями
Размер потока : 418 Мбайт (2%)
Заголовок : LeDoyen
Язык : Ukrainian
ServiceKind : Complete Main
Default : Нет
Forced : Нет

Аудио #4
Идентификатор : 5
Формат : MLP FBA 16-ch
Формат/Информация : Meridian Lossless Packing FBA with 16-channel presentation
Коммерческое название : Dolby TrueHD with Dolby Atmos
Идентификатор кодека : A_TRUEHD
Продолжительность : 2 ч. 10 м.
Вид битрейта : Переменный
Битрейт : 4253 Кбит/сек
Максимальный битрейт : 6366 Кбит/сек
Каналы : 8 каналов
Channel layout : L R C LFE Ls Rs Lb Rb
Частота : 48,0 КГц
Частота кадров : 1200,000 кадров/сек (40 SPF)
Метод сжатия : Без потерь
Задержка видео : 32 мс.
Размер потока : 3,88 Гбайт (22%)
Язык : English
Default : Нет
Forced : Нет
Number of dynamic objects : 13
Bed channel count : 1 канал
Bed channel configuration : LFE

Аудио #5
Идентификатор : 6
Формат : AC-3
Формат/Информация : Audio Coding 3
Коммерческое название : Dolby Digital
Идентификатор кодека : A_AC3
Продолжительность : 2 ч. 10 м.
Вид битрейта : Постоянный
Битрейт : 640 Кбит/сек
Каналы : 6 каналов
Channel layout : L R C LFE Ls Rs
Частота : 48,0 КГц
Частота кадров : 31,250 кадров/сек (1536 SPF)
Битовая глубина : 16 бит
Метод сжатия : С потерями
Задержка видео : 32 мс.
Размер потока : 597 Мбайт (3%)
Язык : English
ServiceKind : Complete Main
Default : Нет
Forced : Нет

Текст #1
Идентификатор : 7
Формат : UTF-8
Идентификатор кодека : S_TEXT/UTF8
Идентификатор кодека/Информация : UTF-8 Plain Text
Продолжительность : 1 ч. 48 м.
Битрейт : 0 бит/сек
ElementCount : 4
Размер потока : 211 байт (0%)
Заголовок : Forced iTunes
Язык : Russian
Default : Да
Forced : Да

Текст #2
Идентификатор : 8
Формат : UTF-8
Идентификатор кодека : S_TEXT/UTF8
Идентификатор кодека/Информация : UTF-8 Plain Text
Продолжительность : 2 ч. 2 м.
Битрейт : 107 бит/сек
ElementCount : 1972
Размер потока : 96,3 Кбайт (0%)
Заголовок : Full iTunes
Язык : Russian
Default : Нет
Forced : Нет

Текст #3
Идентификатор : 9
Формат : UTF-8
Идентификатор кодека : S_TEXT/UTF8
Идентификатор кодека/Информация : UTF-8 Plain Text
Продолжительность : 2 ч. 5 м.
Битрейт : 84 бит/сек
ElementCount : 2457
Размер потока : 77,6 Кбайт (0%)
Язык : English
Default : Нет
Forced : Нет

Меню
00:00:00.000 : en:00:00:00.000
00:06:38.064 : en:00:06:38.064
00:15:22.046 : en:00:15:22.046
00:19:18.032 : en:00:19:18.032
00:26:01.894 : en:00:26:01.894
00:33:10.405 : en:00:33:10.405
00:39:05.426 : en:00:39:05.426
00:46:11.352 : en:00:46:11.352
00:57:34.034 : en:00:57:34.034
01:06:14.387 : en:01:06:14.387
01:15:55.801 : en:01:15:55.801
01:21:51.365 : en:01:21:51.365
01:32:18.199 : en:01:32:18.199
01:36:29.826 : en:01:36:29.826
01:53:58.331 : en:01:53:58.331
02:03:47.962 : en:02:03:47.962


Скачать .torrent 17.52 ГБ


Download
Для скачивания .torrent файлов необходима регистрация
Сайт не распространяет и не хранит электронные версии произведений, а лишь предоставляет доступ к создаваемому пользователями каталогу ссылок на торрент-файлы, которые содержат только списки хеш-сумм

Страница 1 из 1

Ответить на тему

   Похожие торренты   Торрент 




cron