Регистрация ·  Логин: Пароль: Запомнить   · Забыли пароль?



Торрент трекер atorrent.space.
Скачать торрент Узел смерти / The Clovehitch Killer (2018) HDRip от Portablius | Jaskier, размером 744.32 МБ



Ответить на тему
Статистика раздачи
Размер: 744.32 МБ | Зарегистрирован: 11 апр 2019, 10:25 | .torrent скачан: 0 раз(а)
Сидеров: [ 0  | 0 байт/сек ]   Личеров: [ 0  | 0 байт/сек ]   DHT: [ 0 / 0 ]
Автор Сообщение

Модератор видео
Аватара пользователя

Стаж: 5 месяцев 17 дней
Сообщения: 507
Россия

Сообщение 11 апр 2019, 10:25 

[Цитировать]



Название: Узел смерти (Клоувхич)
Оригинальное название: The Clovehitch Killer
Год выхода: 2018
Жанр: Ужасы, триллер, драма, детектив
Режиссер: Дункан Скайлз
В ролях: Чарли Пламмер, Дилан МакДермотт, Саманта Мэтис, Мэдисен Бити, Бренна Шерман, Лэнс Шантилс-Уэртц, Лиа Хаттон Бисмор, Сара Кливленд, Майк Кортезе

О фильме: Тайлер — хороший парень, бойскаут, воспитанный в небогатой, но счастливой семье в маленьком религиозном городке. Однако обнаружив однажды у своего отца жуткие видеозаписи, спрятанные в сарае, он начинает подозревать, что человек, которому он доверял больше всего, может оказаться печально известным серийным убийцей. Тайлер объединяется с Кэсси, девчонкой-изгоем, болезненно одержимой легендами об этом убийце, чтобы выяснить правду и спасти свою семью.



Страна: США
Студия: End Cue
Продолжительность: 01:49:29
Перевод: Профессиональный (многоголосый, закадровый) [Jaskier]
Субтитры: нет

Файл
Кодек: XviD
Качество: HDRip
Видео: 688x384 (1.79:1), 23.976 fps, XviD build 73 ~813 kbps avg, 0.13 bit/pixel
Звук: 48 kHz, MPEG Layer 3, 2 ch, ~128.00 kbps avg

General
Complete name : The.Clovehitch.Killer.2018.HDRip.Portablius.avi
Format : AVI
Format/Info : Audio Video Interleave
File size : 744 MiB
Duration : 1 h 49 min
Overall bit rate : 950 kb/s
Writing application : VirtualDubMod 1.5.10.3 | http://www.virtualdub-fr.org || (build 2550/release)
Writing library : VirtualDubMod build 2550/release

Video
ID : 0
Format : MPEG-4 Visual
Format profile : Advanced [email protected]
Format settings : BVOP1 / Custom Matrix
Format settings, BVOP : 1
Format settings, QPel : No
Format settings, GMC : No warppoints
Format settings, Matrix : Custom
Codec ID : XVID
Codec ID/Hint : XviD
Duration : 1 h 49 min
Bit rate : 813 kb/s
Width : 688 pixels
Height : 384 pixels
Display aspect ratio : 16:9
Frame rate : 23.976 (24000/1001) FPS
Color space : YUV
Chroma subsampling : 4:2:0
Bit depth : 8 bits
Scan type : Progressive
Compression mode : Lossy
Bits/(Pixel*Frame) : 0.128
Stream size : 637 MiB (86%)
Writing library : XviD 73

Audio
ID : 1
Format : MPEG Audio
Format version : Version 1
Format profile : Layer 3
Codec ID : 55
Codec ID/Hint : MP3
Duration : 1 h 49 min
Bit rate mode : Constant
Bit rate : 128 kb/s
Channel(s) : 2 channels
Sampling rate : 48.0 kHz
Frame rate : 41.667 FPS (1152 SPF)
Compression mode : Lossy
Stream size : 100 MiB (13%)
Alignment : Aligned on interleaves
Interleave, duration : 42 ms (1.00 video frame)
Interleave, preload duratio : 504 ms
Writing library : LAME3.99r
Encoding settings : -m s -V 4 -q 2 -lowpass 17 -b 128



Скачать .torrent 744.32 МБ


Download
Для скачивания .torrent файлов необходима регистрация
Сайт не распространяет и не хранит электронные версии произведений, а лишь предоставляет доступ к создаваемому пользователями каталогу ссылок на торрент-файлы, которые содержат только списки хеш-сумм

Страница 1 из 1

Ответить на тему

   Похожие торренты   Торрент