Регистрация ·  Логин: Пароль: Запомнить   · Забыли пароль?



Торрент трекер atorrent.space.
Скачать торрент Хоббит: Нежданное путешествие / The Hobbit: An Unexpected Journey (2012) WEBRip 1080p | D, P, A | Extended Cut | Open Matte, размером 9.81 ГБ



Ответить на тему
Статистика раздачи
Размер: 9.81 ГБ | Зарегистрирован: 11 апр 2019, 10:28 | .torrent скачан: 0 раз(а)
Сидеров: [ 0  | 0 байт/сек ]   Личеров: [ 0  | 0 байт/сек ]   DHT: [ 0 / 0 ]
Автор Сообщение

Модератор видео
Аватара пользователя

Стаж: 5 месяцев 19 дней
Сообщения: 507
Россия

Сообщение 11 апр 2019, 10:28 

[Цитировать]



Название: Хоббит: Нежданное путешествие
Оригинальное название: The Hobbit: An Unexpected Journey
Год выхода: 2012
Жанр: Фэнтези, приключения
Режиссер: Питер Джексон / Peter Jackson
В ролях: Мартин Фриман, Иэн МакКеллен, Ричард Армитедж, Джеймс Несбитт, Кен Стотт, Грэм МакТавиш, Дин О’Горман, Эйдан Тернер, Джед Брофи, Марк Хэдлоу

О фильме: Экранизация повести Джона Р.Р. Толкина «Хоббит, или Туда и обратно», повествующей о Бильбо Бэггинсе, который становится участником грандиозного путешествия, цель которого — вернуть Королевство гномов Эребор, захваченное драконом Смогом. Неожиданно к нему присоединяется волшебник Гэндальф Серый, и Бильбо оказывается в компании тринадцати гномов под предводительством легендарного воина Торина Дубощита. Опасными тропами это путешествие приводит их в Дикие Земли, кишащие гоблинами и орками, смертоносными варгами и меняющими облик, гигантскими пауками и колдунами. Там скромный Бильбо Бэггинс и становится обладателем «прелестного» кольца Голлума, которое таит в себе странные и неожиданные возможности… Это простое золотое кольцо связано с судьбой Средиземья настолько тесно, что Бильбо и представить себе этого не может.



Страна: США, Новая Зеландия
Студия: Metro-Goldwyn-Mayer (MGM), New Line Cinema
Продолжительность: 03:02:31
Перевод: Профессиональный (дублированный), Профессиональный (многоголосый, закадровый), Авторский (одноголосый, закадровый)

Файл
Кодек: h.264
Качество: WEBRip 1080p
Видео: AVC/H264, 1920x1080, 23.976 fps, ~5120 kbps
Аудио 1: русский (AC3, 6 ch, 48 kHz, 640 kbps) |Дубляж, Blu-ray CEE|
Аудио 2: русский (AC3, 6 ch, 48 kHz, 640 kbps) |MVO, Омикрон|
Аудио 3: русский (AC3, 6 ch, 48 kHz, 640 kbps) |Авторский, Ю.Сербин|
Аудио 4: английский (AC3, 6 ch, 48 kHz, 640 kbps)
Субтитры: Русские (Forced, Full), Английские (Full)

General
UniqueID : 209556184004953737727243465831330220784 (0x9DA70D9024149CED92F98D6E77FE0AF0)
Complete name : D:Хоббит. Нежданное путешествие (2012) Extended Open Matte.mkv
Format : Matroska
File size : 9.81 GiB
Duration : 3h 2mn
Overall bit rate : 7 694 Kbps
Encoded date : UTC 2019-04-09 14:45:12
Writing application : mkvmerge v8.3.0 ('Over the Horizon') 32bit
Writing library : libebml v1.3.1 + libmatroska v1.4.2

Video
ID : 1
Format : AVC
Format/Info : Advanced Video Codec
Format profile : [email protected]
Format settings, CABAC : Yes
Format settings, ReFrames : 4 frames
Format settings, GOP : M=2, N=16
Codec ID : V_MPEG4/ISO/AVC
Duration : 3h 2mn
Bit rate : 5 120 Kbps
Width : 1 920 pixels
Height : 1 080 pixels
Display aspect ratio : 16:9
Frame rate mode : Variable
Frame rate : 23.976 fps
Color space : YUV
Chroma subsampling : 4:2:0
Bit depth : 8 bits
Scan type : Progressive
Bits/(Pixel*Frame) : 0.103
Stream size : 6.35 GiB (65%)
Writing library : x264 core 142
Encoding settings : cabac=1 / ref=3 / deblock=1:0:0 / analyse=0x3:0x113 / me=hex / subme=7 / psy=1 / psy_rd=1.00:0.00 / mixed_ref=1 / me_range=16 / chroma_me=1 / trellis=1 / 8x8dct=1 / cqm=0 / deadzone=21,11 / fast_pskip=1 / chroma_qp_offset=-2 / threads=84 / lookahead_threads=8 / sliced_threads=0 / nr=0 / decimate=1 / interlaced=0 / bluray_compat=0 / constrained_intra=0 / bframes=6 / b_pyramid=2 / b_adapt=1 / b_bias=0 / direct=1 / weightb=1 / open_gop=0 / weightp=2 / keyint=50 / keyint_min=26 / scenecut=0 / intra_refresh=0 / rc_lookahead=40 / rc=2pass / mbtree=1 / bitrate=5120 / ratetol=1.0 / qcomp=0.60 / qpmin=0 / qpmax=69 / qpstep=4 / cplxblur=20.0 / qblur=0.5 / vbv_maxrate=7680 / vbv_bufsize=20480 / nal_hrd=none / filler=0 / ip_ratio=1.40 / aq=1:1.00

Audio #1
ID : 2
Format : AC-3
Format/Info : Audio Coding 3
Mode extension : CM (complete main)
Codec ID : A_AC3
Duration : 3h 2mn
Bit rate mode : Constant
Bit rate : 640 Kbps
Channel(s) : 6 channels
Channel positions : Front: L C R, Side: L R, LFE
Sampling rate : 48.0 KHz
Bit depth : 16 bits
Compression mode : Lossy
Video delay : 16ms
Stream size : 836 MiB (8%)
Title : Dub | DD 5.1 @ 640 kbps
Language : Russian

Audio #2
ID : 3
Format : AC-3
Format/Info : Audio Coding 3
Mode extension : CM (complete main)
Codec ID : A_AC3
Duration : 3h 2mn
Bit rate mode : Constant
Bit rate : 640 Kbps
Channel(s) : 6 channels
Channel positions : Front: L C R, Side: L R, LFE
Sampling rate : 48.0 KHz
Bit depth : 16 bits
Compression mode : Lossy
Video delay : 16ms
Stream size : 836 MiB (8%)
Title : MVO | DD 5.1 @ 640 kbps - Omikron
Language : Russian

Audio #3
ID : 4
Format : AC-3
Format/Info : Audio Coding 3
Mode extension : CM (complete main)
Codec ID : A_AC3
Duration : 3h 2mn
Bit rate mode : Constant
Bit rate : 640 Kbps
Channel(s) : 6 channels
Channel positions : Front: L C R, Side: L R, LFE
Sampling rate : 48.0 KHz
Bit depth : 16 bits
Compression mode : Lossy
Video delay : 16ms
Stream size : 836 MiB (8%)
Title : AVO | DD 5.1 @ 640 kbps - Y.Serbin
Language : Russian

Audio #4
ID : 5
Format : AC-3
Format/Info : Audio Coding 3
Mode extension : CM (complete main)
Codec ID : A_AC3
Duration : 3h 2mn
Bit rate mode : Constant
Bit rate : 640 Kbps
Channel(s) : 6 channels
Channel positions : Front: L C R, Side: L R, LFE
Sampling rate : 48.0 KHz
Bit depth : 16 bits
Compression mode : Lossy
Video delay : 16ms
Stream size : 836 MiB (8%)
Title : Original | DD 5.1 @ 640 kbps
Language : English

Text #1
ID : 6
Format : UTF-8
Codec ID : S_TEXT/UTF8
Codec ID/Info : UTF-8 Plain Text
Title : Forced
Language : Russian

Text #2
ID : 7
Format : UTF-8
Codec ID : S_TEXT/UTF8
Codec ID/Info : UTF-8 Plain Text
Title : Full
Language : Russian

Text #3
ID : 8
Format : UTF-8
Codec ID : S_TEXT/UTF8
Codec ID/Info : UTF-8 Plain Text
Language : English
Open Matte версия фильма имеет большее наполнение кадра (но не везде). Исходник с онлайн кинотеатра





Скачать .torrent 9.81 ГБ


Download
Для скачивания .torrent файлов необходима регистрация
Сайт не распространяет и не хранит электронные версии произведений, а лишь предоставляет доступ к создаваемому пользователями каталогу ссылок на торрент-файлы, которые содержат только списки хеш-сумм

Страница 1 из 1

Ответить на тему

   Похожие торренты   Торрент