Регистрация ·  Логин: Пароль: Запомнить   · Забыли пароль?



Торрент трекер atorrent.space.
Скачать торрент В поисках доброго самаритянина / Good Sam (2019) WEB-DL 1080p | D, размером 3.52 ГБ



Ответить на тему
Статистика раздачи
Размер: 3.52 ГБ | Зарегистрирован: 17 май 2019, 19:32 | .torrent скачан: 25 раз(а)
Сидеров: [ 61  | 0 байт/сек ]   Личеров: [ 7  | 0 байт/сек ]   DHT: [ 61 / 7 ]
Автор Сообщение

Модератор видео
Аватара пользователя

Стаж: 7 месяцев 20 дней
Сообщения: 507
Россия

Сообщение 17 май 2019, 19:32 

[Цитировать]


Страна: США
Производство: Wind Dancer Films, Muse Entertainment Enterprises
Год выпуска: 2019
Жанр: комедия
Продолжительность: 01:29:00
Режиссер: Кейт Майлз Мелвилл
Авторы сценария: Тина Бут, Дите Месерве
В ролях: Тия Сиркар, Чад Коннелл, Марко Граззини, Бриттани Дрисделл, Марк Камачо, Элана Дункельман, Стефани Накамура, Джесси Камачо, Кенни Вонг

Описание: Таинственный незнакомец оставляет по всему Нью-Йорку сумки с деньгами. Телерепортёр Кейт Брэдли пытается выйти на след этого доброго самаритянина...



Перевод: Профессиональный (дублированный) | по заказу Netflix
Субтитры: русские (forced + full), английские
Качество: WEB-DL 1080p
Формат: МКV
Видео кодек: AVC
Аудио кодек: E-AC3
Видео: 1920x1080 (16:9), 24.000 fps, MPEG-4 AVC ~4 220 kbps avg
Аудио №1: 48.0 kHz, Enhanced Audio Coding 3, 3/2 (L,C,R,l,r) + LFE ch, ~640 kbps | RUS / Netflix
Аудио №2: 48.0 kHz, Enhanced Audio Coding 3 + Atmos, 3/2 (L,C,R,l,r) + LFE ch, ~768 kbps | ENG
Формат субтитров: UTF-8 Plain Text
Дата премьеры (мир): 16 мая 2019



Релиз от: [email protected]
General
Unique ID : 264633104917536158921531528623576612531 (0xC7167B6B25A9333EB1BA220449C07EB3)
Complete name : Good.Sam.2019.1080p.WEB.x264-EniaHD.mkv
Format : Matroska
Format version : Version 4 / Version 2
File size : 3.52 GiB
Duration : 1 h 29 min
Overall bit rate mode : Variable
Overall bit rate : 5 620 kb/s
Movie name : Good Sam (2019) - EniaHD
Encoded date : UTC 2019-05-16 07:32:46
Writing application : mkvmerge v33.1.0 ('Primrose') 64-bit
Writing library : libebml v1.3.7 + libmatroska v1.5.0

Video
ID : 1
Format : AVC
Format/Info : Advanced Video Codec
Format profile : [email protected]
Format settings : CABAC / 3 Ref Frames
Format settings, CABAC : Yes
Format settings, ReFrames : 3 frames
Codec ID : V_MPEG4/ISO/AVC
Duration : 1 h 29 min
Bit rate mode : Variable
Bit rate : 4 220 kb/s
Maximum bit rate : 6 330 kb/s
Width : 1 920 pixels
Height : 1 080 pixels
Display aspect ratio : 16:9
Frame rate mode : Constant
Frame rate : 24.000 FPS
Color space : YUV
Chroma subsampling : 4:2:0
Bit depth : 8 bits
Scan type : Progressive
Bits/(Pixel*Frame) : 0.085
Stream size : 2.64 GiB (75%)
Writing library : x264 core 148 r2715 7e75228
Encoding settings : cabac=1 / ref=3 / deblock=1:0:0 / analyse=0x1:0x111 / me=umh / subme=10 / psy=1 / psy_rd=1.00:0.00 / mixed_ref=1 / me_range=24 / chroma_me=1 / trellis=2 / 8x8dct=0 / cqm=0 / deadzone=21,11 / fast_pskip=1 / chroma_qp_offset=-2 / threads=8 / lookahead_threads=1 / sliced_threads=0 / nr=0 / decimate=1 / interlaced=0 / bluray_compat=0 / stitchable=1 / constrained_intra=0 / bframes=2 / b_pyramid=0 / b_adapt=2 / b_bias=0 / direct=3 / weightb=1 / open_gop=0 / weightp=2 / keyint=48 / keyint_min=25 / scenecut=0 / intra_refresh=0 / rc_lookahead=48 / rc=2pass / mbtree=1 / bitrate=4220 / ratetol=1.0 / qcomp=0.50 / qpmin=6 / qpmax=51 / qpstep=4 / cplxblur=20.0 / qblur=0.5 / vbv_maxrate=6330 / vbv_bufsize=8440 / nal_hrd=vbr / filler=0 / ip_ratio=1.40 / aq=1:1.00
Default : Yes
Forced : No

Audio #1
ID : 2
Format : E-AC-3
Format/Info : Enhanced Audio Coding 3
Codec ID : A_EAC3
Duration : 1 h 29 min
Bit rate mode : Constant
Bit rate : 640 kb/s
Channel(s) : 6 channels
Channel positions : Front: L C R, Side: L R, LFE
Sampling rate : 48.0 kHz
Frame rate : 187.500 FPS (256 SPF)
Compression mode : Lossy
Stream size : 411 MiB (11%)
Title : Dub
Language : Russian
Service kind : Complete Main
Default : Yes
Forced : No

Audio #2
ID : 3
Format : E-AC-3
Format/Info : Enhanced Audio Coding 3
Format profile : E-AC-3+Atmos / E-AC-3
Codec ID : A_EAC3
Duration : 1 h 29 min
Bit rate mode : Constant
Bit rate : 768 kb/s
Channel(s) : 15 objects / 6 channels
Channel positions : 15 objects / Front: L C R, Side: L R, LFE
Sampling rate : 48.0 kHz
Frame rate : 187.500 FPS (256 SPF)
Compression mode : Lossy
Stream size : 493 MiB (14%)
Title : Original
Language : English
Service kind : Complete Main
Default : No
Forced : No

Text #1
ID : 4
Format : UTF-8
Codec ID : S_TEXT/UTF8
Codec ID/Info : UTF-8 Plain Text
Duration : 1 h 29 min
Bit rate : 4 b/s
Count of elements : 40
Stream size : 3.03 KiB (0%)
Title : Forced
Language : Russian
Default : Yes
Forced : Yes

Text #2
ID : 5
Format : UTF-8
Codec ID : S_TEXT/UTF8
Codec ID/Info : UTF-8 Plain Text
Duration : 1 h 29 min
Bit rate : 144 b/s
Count of elements : 1652
Stream size : 94.5 KiB (0%)
Title : Full
Language : Russian
Default : No
Forced : No

Text #3
ID : 6
Format : UTF-8
Codec ID : S_TEXT/UTF8
Codec ID/Info : UTF-8 Plain Text
Duration : 1 h 27 min
Bit rate : 105 b/s
Count of elements : 1845
Stream size : 67.6 KiB (0%)
Language : English
Default : No
Forced : No


Скачать .torrent 3.52 ГБ


Download
Для скачивания .torrent файлов необходима регистрация
Сайт не распространяет и не хранит электронные версии произведений, а лишь предоставляет доступ к создаваемому пользователями каталогу ссылок на торрент-файлы, которые содержат только списки хеш-сумм

Страница 1 из 1

Ответить на тему

   Похожие торренты   Торрент 




cron