Регистрация ·  Логин: Пароль: Запомнить   · Забыли пароль?



Торрент трекер atorrent.space.
Скачать торрент Человек-паук: Вдали от дома / Spider-Man: Far from Home (2019) WEBRip 1080p | Трейлер №2, размером 719.73 МБ



Ответить на тему
Статистика раздачи
Размер: 719.73 МБ | Зарегистрирован: 18 май 2019, 22:46 | .torrent скачан: 10955 раз(а)
Сидеров: [ 92  | 0 байт/сек ]   Личеров: [ 2  | 0 байт/сек ]   DHT: [ 92 / 2 ]
Автор Сообщение

Модератор видео
Аватара пользователя

Стаж: 5 месяцев 17 дней
Сообщения: 507
Россия

Сообщение 18 май 2019, 22:46 

[Цитировать]



Год выпуска: 2019
Производство: США / Columbia Pictures Corporation, Marvel Studios Inc.
Жанр: Фантастика, боевик, комедия, приключения

Режиссер: Джон Уоттс
Продюсеры: Кевин Файги, Эми Паскаль, Виктория Алонсо
Актеры: Том Холланд, Зендея, Коби Смолдерс, Джон Фавро, Сэмюэл Л. Джексон, Мариса Томей, Джейк Джилленхол

Описание:
Питер Паркер вместе с друзьями отправляется на летние каникулы в Европу. Однако отдохнуть приятелям вряд ли удастся — Питеру придется согласиться помочь Нику Фьюри раскрыть тайну существ, вызывающих стихийные бедствия и разрушения по всему континенту.

Перевод: Дублированный
Субтитры: Нет
Дата мировой премьеры: 2 июля 2019
Дата российской премьеры: 4 июля 2019, «WDSSPR»


Продолжительность: 00:02:52
Качество видео: WEBRip 1080p
Видео: H264, 1920x1080 (16:9), 30,5 Мбит/сек
Аудио 1: MP3 2.0, 128 Кбит/сек [Русский - дублированный]
Аудио 2: DTS 5.1, 4570 Кбит/сек [Английский - оригинал]
Общее
Уникальный идентификатор : 169067809873017839961613354461168883141 (0x7F314698A481B7891ED50873112355C5)
Полное имя : V:TorrentsSpider-Man. Far from Home (2019) WEBRip [1080p] Trailer №2.mkv
Формат : Matroska
Версия формата : Version 4 / Version 2
Размер файла : 720 Мбайт
Продолжительность : 2 м. 52 с.
Общий поток : 35,0 Мбит/сек
Дата кодирования : UTC 2019-05-06 22:09:32
Программа кодирования : mkvmerge v33.1.0 ('Primrose') 64-bit
Библиотека кодирования : libebml v1.3.7 + libmatroska v1.5.0

Видео
Идентификатор : 1
Формат : AVC
Формат/Информация : Advanced Video Codec
Профиль формата : [email protected]
Настройки формата : CABAC / 1 Ref Frames
Параметр CABAC формата : Да
Параметр RefFrames формата : 1 кадр
Идентификатор кодека : V_MPEG4/ISO/AVC
Продолжительность : 2 м. 51 с.
Битрейт : 30,5 Мбит/сек
Ширина : 1920 пикселей
Высота : 1080 пикселей
Соотношение сторон : 16:9
Режим частоты кадров : Постоянный
Частота кадров : 23,976 (23976/1000) кадра/сек
Частота кадров в оригинале : 23,976 (24000/1001) кадра/сек
Цветовое пространство : YUV
Субдискретизация насыщенности : 4:2:0
Битовая глубина : 8 бит
Тип развёртки : Прогрессивная
Бит/(Пиксели*Кадры) : 0.613
Размер потока : 623 Мбайт (87%)
Default : Да
Forced : Нет
Цветовой диапазон : Limited
Основные цвета : BT.709
Характеристики трансфера : BT.709
Коэффициенты матрицы : BT.709

Аудио #1
Идентификатор : 2
Формат : MPEG Audio
Версия формата : Version 1
Профиль формата : Layer 3
Настройки формата : Joint stereo / MS Stereo
Режим : Joint stereo
Расширение режима : MS Stereo
Идентификатор кодека : A_MPEG/L3
Идентификатор кодека/Подсказка : MP3
Продолжительность : 2 м. 52 с.
Вид битрейта : Постоянный
Битрейт : 128 Кбит/сек
Каналы : 2 канала
Частота : 48,0 КГц
Частота кадров : 41,660 кадра/сек (1152 SPF)
Метод сжатия : С потерями
Размер потока : 2,63 Мбайт (0%)
Заголовок : Dub
Язык : Russian
Default : Да
Forced : Нет

Аудио #2
Идентификатор : 3
Формат : DTS
Формат/Информация : Digital Theater Systems
Профиль формата : MA / Core
Режим : 16
Параметр Endianness формата : Big
Идентификатор кодека : A_DTS
Продолжительность : 2 м. 52 с.
Вид битрейта : Переменный / Постоянный
Битрейт : 4570 Кбит/сек / 1509 Кбит/сек
Каналы : 6 каналов
Расположение каналов : Front: L C R, Side: L R, LFE
Частота : 48,0 КГц
Частота кадров : 93,750 кадра/сек (512 SPF)
Битовая глубина : 24 бит
Метод сжатия : Без потерь / Lossy
Размер потока : 93,9 Мбайт (13%)
Язык : English
Default : Нет
Forced : Нет



Скачать .torrent 719.73 МБ


Download
Для скачивания .torrent файлов необходима регистрация
Сайт не распространяет и не хранит электронные версии произведений, а лишь предоставляет доступ к создаваемому пользователями каталогу ссылок на торрент-файлы, которые содержат только списки хеш-сумм

Страница 1 из 1

Ответить на тему

   Похожие торренты   Торрент 




cron