Регистрация ·  Логин: Пароль: Запомнить   · Забыли пароль?



Торрент трекер atorrent.space.
Скачать торрент 2019: Новые варвары / The New Barbarians / I nuovi barbari (1983) BDRemux 1080р | P, размером 12.07 ГБ



Ответить на тему
Статистика раздачи
Размер: 12.07 ГБ | Зарегистрирован: 18 май 2019, 22:46 | .torrent скачан: 3 раз(а)
Сидеров: [ 8  | 0 байт/сек ]   Личеров: [ 5  | 0 байт/сек ]   DHT: [ 8 / 5 ]
Автор Сообщение

Модератор видео
Аватара пользователя

Стаж: 5 месяцев 17 дней
Сообщения: 507
Россия

Сообщение 18 май 2019, 22:46 

[Цитировать]


Название: 2019: Новые варвары
Оригинальное название: The New Barbarians / I nuovi barbari
Год выхода: 1983
Жанр: фантастика, боевик, триллер
Режиссер: Энзо Кастеллари
В ролях: Джанкарло Прете, Фред Уильямсон, Джордж Истмен, Анна Канакис, Эннио Джиролами, Венантино Венантини, Массимо Ванни, Джованни Фрезза, Ирис Пейнадо, Андреа Коппола

О фильме:
2019 год. Земля превратилась в пустыню, после ядерной катастрофы. Банда байкеров-мародеров, во главе с «Единственным», рыщет по мертвым землям, и истребляет последних, кто остался в живых. Герой-одиночка Скорпион пытается защитить группу людей от мародеров но попадает в ловушку. И тогда выручать его приходит опытный воин Надир…



Страна: Италия, США
Продолжительность: 01:30:54
Перевод: профессиональный(многоголосый закадровый)
Субтитры: английские
Оригинальная аудиодорожка: английский

Файл
Качество: BDRemux 1080р
Видео: 1920x1080 / MPEG-4 AVC Video / 17996 kbps / 1080p / 23,976 fps / 16:9 / High Profile 4.1
Аудио 1: Русский / AC3 / 2.0 / 192 Kbps / 48,0 kHz (MVO)
Аудио 2: English / FLAC / 2.0 / 48 kHz / ~616 kbps (Original)
Аудио 3: English / AC3 / 2.0 / 48 kHz / 256 kbps (Commentary)


Общее
Уникальный идентификатор : 203975025561172565090691592050678144564 (0x99742934E81A332FBE5C95F2526F9E34)
Полное имя : The.New.Barbarians.1983.BDRemux.1080p.Rus.Eng.mkv
Формат : Matroska
Версия формата : Version 4 / Version 2
Размер файла : 12,1 Гбайт
Продолжительность : 1 ч. 30 м.
Режим общего битрейта : Переменный
Общий поток : 19,0 Мбит/сек
Название фильма : The New Barbarians
Дата кодирования : UTC 2016-03-20 05:09:17
Программа кодирования : mkvmerge v7.3.0 ('Nouages') 32bit built on Oct 22 2014 18:44:01
Библиотека кодирования : libebml v1.3.0 + libmatroska v1.4.1
_STATISTICS_WRITING_APP : mkvmerge v7.3.0 ('Nouages') 32bit built on Oct 22 2014 18:44:01
_STATISTICS_WRITING_DATE_UTC : 2016-03-20 05:09:17
_STATISTICS_TAGS : BPS DURATION NUMBER_OF_FRAMES NUMBER_OF_BYTES
DURATION : 01:28:15.456000000
NUMBER_OF_FRAMES : 580
NUMBER_OF_BYTES : 16940

Видео
Идентификатор : 1
Формат : AVC
Формат/Информация : Advanced Video Codec
Профиль формата : [email protected]
Параметр CABAC формата : Да
Параметр ReFrames формата : 4 кадра
Идентификатор кодека : V_MPEG4/ISO/AVC
Продолжительность : 1 ч. 30 м.
Вид битрейта : Переменный
Максимальный битрейт : 38,0 Мбит/сек
Ширина : 1920 пикселей
Высота : 1080 пикселей
Соотношение сторон : 16:9
Режим частоты кадров : Постоянный
Частота кадров : 23,976 кадра/сек
Цветовое пространство : YUV
Субдискретизация насыщенности : 4:2:0
Битовая глубина : 8 бит
Тип развёртки : Прогрессивная
Заголовок : The New Barbarians 1983 Blu-Ray
Default : Нет
Forced : Нет

Аудио #1
Идентификатор : 2
Формат : AC-3
Формат/Информация : Audio Coding 3
Расширение режима : CM (complete main)
Параметр Endianness формата : Big
Идентификатор кодека : A_AC3
Продолжительность : 1 ч. 30 м.
Вид битрейта : Постоянный
Битрейт : 192 Кбит/сек
Каналы : 2 канала
Расположение каналов : Front: L R
Частота : 48,0 КГц
Метод сжатия : С потерями
Размер потока : 125 Мбайт (1%)
Заголовок : MVO AC3 2.0 192 kbps
Язык : Russian
Default : Нет
Forced : Нет

Аудио #2
Идентификатор : 3
Формат : FLAC
Формат/Информация : Free Lossless Audio Codec
Идентификатор кодека : A_FLAC
Продолжительность : 1 ч. 30 м.
Вид битрейта : Переменный
Каналы : 2 канала
Частота : 48,0 КГц
Битовая глубина : 24 бит
Заголовок : Original FLAC 2.0 ~616 kbps
Библиотека кодирования : libFLAC 1.2.1 (UTC 2007-09-17)
Язык : English
Default : Нет
Forced : Нет

Аудио #3
Идентификатор : 4
Формат : AC-3
Формат/Информация : Audio Coding 3
Расширение режима : CM (complete main)
Параметр Endianness формата : Big
Идентификатор кодека : A_AC3
Продолжительность : 1 ч. 30 м.
Вид битрейта : Постоянный
Битрейт : 256 Кбит/сек
Каналы : 2 канала
Расположение каналов : Front: L R
Частота : 48,0 КГц
Метод сжатия : С потерями
Размер потока : 166 Мбайт (1%)
Заголовок : Commentary AC3 2.0 256 kbps
Язык : English
Default : Нет
Forced : Нет

Текст
Идентификатор : 5
Формат : UTF-8
Идентификатор кодека : S_TEXT/UTF8
Идентификатор кодека/Информация : UTF-8 Plain Text
Язык : English
Default : Нет
Forced : Нет

Меню
00:00:00.000 : en:00:00:00.000
00:01:54.906 : en:00:01:54.906
00:04:32.856 : en:00:04:32.856
00:11:16.217 : en:00:11:16.217
00:16:28.613 : en:00:16:28.613
00:20:55.546 : en:00:20:55.546
00:26:28.337 : en:00:26:28.337
00:32:39.499 : en:00:32:39.499
00:38:27.597 : en:00:38:27.597
00:41:59.183 : en:00:41:59.183
00:44:24.912 : en:00:44:24.912
00:51:53.527 : en:00:51:53.527
00:56:32.097 : en:00:56:32.097
00:59:35.197 : en:00:59:35.197
01:07:44.102 : en:01:07:44.102
01:15:03.916 : en:01:15:03.916
01:22:46.587 : en:01:22:46.587
01:28:39.731 : en:01:28:39.731


Скачать .torrent 12.07 ГБ


Download
Для скачивания .torrent файлов необходима регистрация
Сайт не распространяет и не хранит электронные версии произведений, а лишь предоставляет доступ к создаваемому пользователями каталогу ссылок на торрент-файлы, которые содержат только списки хеш-сумм

Страница 1 из 1

Ответить на тему

   Похожие торренты   Торрент