Регистрация ·  Логин: Пароль: Запомнить   · Забыли пароль?



Торрент трекер atorrent.space.
Скачать торрент Мисс Пуля / Miss Bala (2019) BDRip 1080p от селезень | iTunes, размером 10.2 ГБ



Ответить на тему
Статистика раздачи
Размер: 10.2 ГБ | Зарегистрирован: 18 май 2019, 22:46 | .torrent скачан: 2169 раз(а)
Сидеров: [ 158  | 0 байт/сек ]   Личеров: [ 10  | 0 байт/сек ]   DHT: [ 158 / 10 ]
Автор Сообщение

Модератор видео
Аватара пользователя

Стаж: 5 месяцев 19 дней
Сообщения: 507
Россия

Сообщение 18 май 2019, 22:46 

[Цитировать]


Название: Мисс Пуля
Оригинальное название: Miss Bala
Год выхода: 2019
Жанр: Боевик, триллер, драма
Режиссер: Кэтрин Хардвик
В ролях: Джина Родригез, Энтони Маки, Исмаэль Круз, Мэтт Лауриа, Томас Деккер, Айслинн Дербес, Кристина Рольдо, Рикардо Абарка, Даниэла де ла Фе, Уилл Блэгроув



О фильме: Участница конкурса красоты Глория становится свидетельницей жестокой бандитской расправы и попадает в руки харизматичного наркобарона. С помощью шантажа и угроз он использует отчаянную красавицу как пешку в своей игре против ЦРУ и УБН.

Страна: Мексика, США
Студия: Canana Films, Misher Films, Sony Pictures Entertainment
Продолжительность: 01:43:58
Перевод: Профессиональный многоголосый | iTunes

Качество: BDRip 1080p
Видео: MPEG-4 AVC, 1920x804, 13 Mbit/s, 23.976 fps
Звук:
Аудио #01: 48 kHz, AC3, 5.1, 384 Kbps | iTunes | RUS |
Аудио #02: 48 kHz, AC3, 5.1, 640 Kbps | Оригинал | ENG |
Субтитры: Русские (Forced, full), украинские (Full), английские



General
Unique ID : 71750439927610483348988355724411292182 (0x35FAA1CFDC5E0DE5306D0D0B87124A16)
Complete name : D:Video111Miss.Bala.2019.BDRip.1080p.seleZen.mkv
Format : Matroska
Format version : Version 4
File size : 10.2 GiB
Duration : 1 h 43 min
Overall bit rate : 14.0 Mb/s
Movie name : Miss Bala 2019 from селезень
Encoded date : UTC 2019-05-07 21:54:30
Writing application : mkvmerge v32.0.0 ('Astral Progressions') 64-bit
Writing library : libebml v1.3.7 + libmatroska v1.5.0

Video
ID : 1
Format : AVC
Format/Info : Advanced Video Codec
Format profile : [email protected]
Format settings : CABAC / 5 Ref Frames
Format settings, CABAC : Yes
Format settings, Reference : 5 frames
Codec ID : V_MPEG4/ISO/AVC
Duration : 1 h 43 min
Bit rate : 13.0 Mb/s
Width : 1 920 pixels
Height : 804 pixels
Display aspect ratio : 2.40:1
Frame rate mode : Constant
Frame rate : 23.976 (24000/1001) FPS
Color space : YUV
Chroma subsampling : 4:2:0
Bit depth : 8 bits
Scan type : Progressive
Bits/(Pixel*Frame) : 0.352
Stream size : 9.45 GiB (93%)
Title : playHD
Writing library : x264 core 146 r2538 121396c
Encoding settings : cabac=1 / ref=5 / deblock=1:-3:-3 / analyse=0x3:0x133 / me=umh / subme=10 / psy=1 / psy_rd=1.00:0.00 / mixed_ref=1 / me_range=32 / chroma_me=1 / trellis=2 / 8x8dct=1 / cqm=0 / deadzone=21,11 / fast_pskip=0 / chroma_qp_offset=-2 / threads=3 / lookahead_threads=1 / sliced_threads=0 / nr=0 / decimate=0 / interlaced=0 / bluray_compat=0 / constrained_intra=0 / bframes=9 / b_pyramid=2 / b_adapt=2 / b_bias=0 / direct=3 / weightb=1 / open_gop=0 / weightp=2 / keyint=250 / keyint_min=23 / scenecut=40 / intra_refresh=0 / rc=crf / mbtree=0 / crf=15.5 / qcomp=0.60 / qpmin=0 / qpmax=69 / qpstep=4 / ip_ratio=1.40 / pb_ratio=1.30 / aq=3:0.80
Language : English
Default : Yes
Forced : No

Audio #1
ID : 2
Format : AC-3
Format/Info : Audio Coding 3
Commercial name : Dolby Digital
Codec ID : A_AC3
Duration : 1 h 43 min
Bit rate mode : Constant
Bit rate : 384 kb/s
Channel(s) : 6 channels
Channel layout : L R C LFE Ls Rs
Sampling rate : 48.0 kHz
Frame rate : 31.250 FPS (1536 SPF)
Bit depth : 16 bits
Compression mode : Lossy
Stream size : 286 MiB (3%)
Title : iTunes
Language : Russian
Service kind : Complete Main
Default : Yes
Forced : Yes

Audio #2
ID : 3
Format : AC-3
Format/Info : Audio Coding 3
Commercial name : Dolby Digital
Codec ID : A_AC3
Duration : 1 h 43 min
Bit rate mode : Constant
Bit rate : 640 kb/s
Channel(s) : 6 channels
Channel layout : L R C LFE Ls Rs
Sampling rate : 48.0 kHz
Frame rate : 31.250 FPS (1536 SPF)
Bit depth : 16 bits
Compression mode : Lossy
Stream size : 476 MiB (5%)
Title : Original
Language : English
Service kind : Complete Main
Default : No
Forced : No

Text #1
ID : 4
Format : UTF-8
Codec ID : S_TEXT/UTF8
Codec ID/Info : UTF-8 Plain Text
Duration : 1 h 40 min
Bit rate : 0 b/s
Count of elements : 2
Stream size : 118 Bytes (0%)
Title : Forced
Language : Russian
Default : Yes
Forced : Yes

Text #2
ID : 5
Format : UTF-8
Codec ID : S_TEXT/UTF8
Codec ID/Info : UTF-8 Plain Text
Duration : 1 h 42 min
Bit rate : 54 b/s
Count of elements : 972
Stream size : 40.6 KiB (0%)
Title : Full
Language : Russian
Default : No
Forced : No

Text #3
ID : 6
Format : UTF-8
Codec ID : S_TEXT/UTF8
Codec ID/Info : UTF-8 Plain Text
Duration : 1 h 42 min
Bit rate : 53 b/s
Count of elements : 971
Stream size : 39.9 KiB (0%)
Title : Full
Language : Ukrainian
Default : No
Forced : No

Text #4
ID : 7
Format : UTF-8
Codec ID : S_TEXT/UTF8
Codec ID/Info : UTF-8 Plain Text
Duration : 1 h 36 min
Bit rate : 35 b/s
Count of elements : 951
Stream size : 24.9 KiB (0%)
Title : Full
Language : English
Default : No
Forced : No

Menu
00:00:00.000 : en:Chapter 01
00:05:31.706 : en:Chapter 02
00:12:15.777 : en:Chapter 03
00:17:39.600 : en:Chapter 04
00:24:00.439 : en:Chapter 05
00:27:02.621 : en:Chapter 06
00:35:19.034 : en:Chapter 07
00:41:09.801 : en:Chapter 08
00:46:20.236 : en:Chapter 09
00:55:58.021 : en:Chapter 10
00:59:22.768 : en:Chapter 11
01:03:48.950 : en:Chapter 12
01:09:17.945 : en:Chapter 13
01:20:28.741 : en:Chapter 14
01:25:28.373 : en:Chapter 15
01:30:06.610 : en:Chapter 16


Релиз:



Скачать .torrent 10.2 ГБ


Download
Для скачивания .torrent файлов необходима регистрация
Сайт не распространяет и не хранит электронные версии произведений, а лишь предоставляет доступ к создаваемому пользователями каталогу ссылок на торрент-файлы, которые содержат только списки хеш-сумм

Страница 1 из 1

Ответить на тему

   Похожие торренты   Торрент