Регистрация ·  Логин: Пароль: Запомнить   · Забыли пароль?



Торрент трекер atorrent.space.
Скачать торрент Ягодка любви (Александр Довженко) [1926, короткометражка, комедия, немое кино, DVDRip-AVC], размером 349.87 МБ



Ответить на тему
Статистика раздачи
Размер: 349.87 МБ | Зарегистрирован: 25 сен 2013, 18:40 | .torrent скачан: 0 раз(а)
Сидеров: [ 0  | 0 байт/сек ]   Личеров: [ 0  | 0 байт/сек ]   DHT: [ 0 / 0 ]
Автор Сообщение

Аватара пользователя

Стаж: 7 лет
Сообщения: 59867
Египет

Сообщение 25 сен 2013, 18:40 

[Цитировать]



[b]Ягодка любви[/b]
Формат: DVDRip-AVC, MKV, H.264, AC3

Режиссер: Александр Довженко
Жанр: короткометражка, комедия, немое кино

Продолжительность: 00:24:35
Год выпуска: 1926

В ролях: Марьян Крушельницкий, Маргарита Барская (Чардынина), Дмитрий Капка, Иван Замычковский, Владимир Лисовский, А. Белов (VI), Леонид Чембарский, Игорь Земгано, К. Западная, Николай Надемский

Описание: Эксцентрическая комедия. Единственная комедия в творчестве Александра Довженко являет собою пример «советской комической». Ее сюжет составляют приключения парикмахера Жана Колбасюка, пытающегося избавиться от своего «незаконнорожденного» младенца. Узнав, что мать ребенка добилась в народном суде алиментов, герой обещает стать примерным отцом. Однако теперь ему предстоит найти ребенка, от которого он только что с большим трудом избавился.



Видео: 672x528 (1.27:1), 25.000 fps, AVC (x264), , ~1759 kbps avg, 0.198 bit/pixel

Аудио: 48 kHz, AC3 Dolby Digital, 2/0 (L,R) ch, ~224 kbps avg

Релиз-Группа




Общее
Уникальный идентификатор : 187276169098062205849335272349863471879 (0x8CE414047F0F7CE0B33051A87B636B07)
Полное имя : D:\jagodka_lubvi_[tfile.ru].mkv
Формат : Matroska
Размер файла : 350 Мбайт
Продолжительность : 25 м.
Общий поток : 1945 Кбит/сек
Дата кодирования : UTC 2011-06-10 22:29:57
Программа кодирования : mkvmerge v4.6.0 ('Still Crazy After All These Years') сборка от Apr 1 2011 21:01:49
Библиотека кодирования : libebml v1.2.0 + libmatroska v1.1.0

Видео
Идентификатор : 1
Формат : AVC
Формат/Информация : Advanced Video Codec
Профиль формата :
Параметр CABAC формата : Да
Параметр ReFrames формата : 4 кадры
Идентификатор кодека : V_MPEG4/ISO/AVC
Продолжительность : 25 м.
Битрейт : 1759 Кбит/сек
Ширина : 672 пикс.
Высота : 528 пикс.
Соотношение сторон : 1,273
Частота кадров : 25,000 кадр/сек
Цветовое пространство : YUV
Подвыборка цветности : 4:2:0
Битовая глубина : 8 бит
Тип развёртки : Прогрессивная
Бит/(Пиксели*Кадры) : 0.198
Размер потока : 303 Мбайт (86%)
Библиотека кодирования : x264 core 115 r1937 aa21558
Настройки программы : cabac=1 / ref=3 / deblock=1:0:0 / analyse=0x3:0x113 / me=hex / subme=7 / psy=1 / psy_rd=1.00:0.10 / mixed_ref=1 / me_range=16 / chroma_me=1 / trellis=1 / 8x8dct=1 / cqm=0 / deadzone=21,11 / fast_pskip=1 / chroma_qp_offset=-3 / threads=3 / sliced_threads=0 / nr=0 / decimate=1 / interlaced=0 / bluray_compat=0 / constrained_intra=0 / bframes=3 / b_pyramid=2 / b_adapt=1 / b_bias=0 / direct=1 / weightb=1 / open_gop=0 / weightp=2 / keyint=250 / keyint_min=25 / scenecut=40 / intra_refresh=0 / rc_lookahead=40 / rc=2pass / mbtree=1 / bitrate=1759 / ratetol=1.0 / qcomp=0.60 / qpmin=0 / qpmax=69 / qpstep=4 / cplxblur=20.0 / qblur=0.5 / ip_ratio=1.40 / aq=1:1.00

Аудио
Идентификатор : 2
Формат : AC-3
Формат/Информация : Audio Coding 3
Расширение режима : CM (complete main)
Идентификатор кодека : A_AC3
Продолжительность : 25 м.
Вид битрейта : Постоянный
Битрейт : 224 Кбит/сек
Канал(ы) : 2 канала(ов)
Расположение каналов : Front: L R
Частота : 48,0 КГц
Битовая глубина : 16 бит
Метод сжатия : С потерями
Размер потока : 40,3 Мбайт (12%)

В 2006 году Министерством культуры Украины и Национальным центром Александра Довженко было завершено издание полного собрания произведений одного из самых выдающихся, по мнению многих критиков, кинорежиссёров в истории мирового кинематографа, украинского творца - Александра Довженко, в ходе которого была осуществлена полная цифровая реставрация изображения и звука всех фильмов Довженко. Источником для данного рипа послужила копия подарочного 10-ти дискового издания, вышедшего тиражом в 1000 комплектов и розданного в виде подарков диппредставительствам и музеям. В продажу издание не поступало. Кроме этого издания, в мире никто не производил настолько серьёзной реставрации произведений Довженко, и поэтому именно этот 10-ти дисковый комплект является наилучшим по качеству изданием на сегодняшний день.

























Скачать .torrent 349.87 МБ


Download
Для скачивания .torrent файлов необходима регистрация
Сайт не распространяет и не хранит электронные версии произведений, а лишь предоставляет доступ к создаваемому пользователями каталогу ссылок на торрент-файлы, которые содержат только списки хеш-сумм

Страница 1 из 1

Ответить на тему

   Похожие торренты   Торрент 




cron